VideoHelp Forum

Try DVDFab and download streaming video, copy, convert or make Blu-rays,DVDs! Download free trial !
+ Reply to Thread
Results 1 to 7 of 7
Thread
  1. Member
    Join Date
    Jan 2020
    Location
    BCS,LP, MX
    Search Comp PM
    How to download video on hqq.tv?
    Would you please tell me how to download video with youtube-dl. pplease

    https://hqq.tv/player/vid=VEt2R282MlhxeTJJekYycVRoY292QT09
    https://hqq.tv/player/embed_player.php?vid=VEt2R282MlhxeTJJekYycVRoY292QT09

    https://h4ahsm.vkcache.com/secip/0/B7Ot9HzSnyWIGDVt6rwhvw/MTc3LjI0Ni4yMjIuNzY=/1580526...576190398zxda6
    https://h4ahsm.vkcache.com/secip/0/B7Ot9HzSnyWIGDVt6rwhvw/MTc3LjI0Ni4yMjIuNzY=/1580526...6/Frag-1-v1-a1

    first Frag=.. .mp666/Frag-1-v1-a1
    last Frag=.. .mp666/Frag-275-v1-a1
    Image
    [Attachment 51748 - Click to enlarge]


    file changed to mp4 = Frag-1-v1-a1.mp4
    preview in MPlayer ..
    Image
    [Attachment 51749 - Click to enlarge]


    download all "Frag" and join them .. ... I want to learn with youtube-dl
    Quote Quote  
  2. .....
    Last edited by ChezBompaLawijt; 31st Jan 2020 at 14:23.
    Quote Quote  
  3. Member
    Join Date
    Nov 2015
    Location
    Campuchia - Sapoche
    Search Comp PM
    Your link work with ffmpeg and see this thread --> https://forum.videohelp.com/threads/370243-download-video-from-hqq-tv

    Code:
    https://h4ahsm.vkcache.com/secip/0/B7Ot9HzSnyWIGDVt6rwhvw/MTc3LjI0Ni4yMjIuNzY=/1580526000/hls-vod-s03/flv/api/files/videos/2019/12/13/1576190398zxda6
    C:\Users\xxxxxxxxxxxxxxxxxxxxxxxxxxxxxxxxxxxxxxxxx xxxxxxxxxxxxxxxxxxxxxxxx>f
    fmpeg -user_agent "Mozilla/5.0 (Windows NT 6.1; Win64; x64; rv:68.0) Gecko/20100101 Firefox/68.0" -i
    "https://h4ahsm.vkcache.com/secip/0/B7Ot9HzSnyWIGDVt6rwhvw/MTc3LjI0Ni4yMjIuNzY=/
    1580526000/hls-vod-s03/flv/api/files/videos/2019/12/13/1576190398zxda6.mp4.m3u8"
    -c copy video.ts
    ffmpeg version 4.2.1 Copyright (c) 2000-2019 the FFmpeg developers
    built with gcc 9.1.1 (GCC) 20190807
    ....................
    [hls @ 0000000000498980] Skip ('#EXT-X-ALLOW-CACHE:YES')
    [hls @ 0000000000498980] Skip ('#EXT-X-VERSION:3')
    [hls @ 0000000000498980] Opening 'https://h4ahsm.vkcache.com/secip/0/B7Ot9HzSnyW
    IGDVt6rwhvw/MTc3LjI0Ni4yMjIuNzY=/1580526000/hls-vod-s03/flv/api/files/videos/201
    9/12/13/1576190398zxda6.mp666/Frag-1-v1-a1' for reading
    [hls @ 0000000000498980] Opening 'https://h4ahsm.vkcache.com/secip/0/B7Ot9HzSnyW
    IGDVt6rwhvw/MTc3LjI0Ni4yMjIuNzY=/1580526000/hls-vod-s03/flv/api/files/videos/201
    9/12/13/1576190398zxda6.mp666/Frag-2-v1-a1' for reading
    Input #0, hls, from 'https://h4ahsm.vkcache.com/secip/0/B7Ot9HzSnyWIGDVt6rwhvw/M
    Tc3LjI0Ni4yMjIuNzY=/1580526000/hls-vod-s03/flv/api/files/videos/2019/12/13/15761
    90398zxda6.mp4.m3u8':
    Duration: 01:31:29.34, start: 0.101000, bitrate: N/A
    Program 0
    Metadata:
    variant_bitrate : 0
    Stream #0:0: Video: h264 (High) ([27][0][0][0] / 0x001B), yuv420p, 1154x480,
    25 fps, 25 tbr, 90k tbn, 50 tbc
    Metadata:
    variant_bitrate : 0
    Stream #0:1: Audio: aac (LC) ([15][0][0][0] / 0x000F), 44100 Hz, stereo, flt
    p
    Metadata:
    variant_bitrate : 0
    Stream #0:2: Data: timed_id3 (ID3 / 0x20334449)
    Metadata:
    variant_bitrate : 0
    Output #0, mpegts, to 'video.ts':
    Metadata:
    encoder : Lavf58.29.100
    Stream #0:0: Video: h264 (High) ([27][0][0][0] / 0x001B), yuv420p, 1154x480,
    q=2-31, 25 fps, 25 tbr, 90k tbn, 90k tbc
    Metadata:
    variant_bitrate : 0
    Stream #0:1: Audio: aac (LC) ([15][0][0][0] / 0x000F), 44100 Hz, stereo, flt
    p
    Metadata:
    variant_bitrate : 0
    Stream mapping:
    Stream #0:0 -> #0:0 (copy)
    Stream #0:1 -> #0:1 (copy)
    Press [q] to stop, [?] for help
    frame= 2540 fps= 66 q=-1.0 size= 10752kB time=00:01:41.56 bitrate= 867.3kbits/
    frame= 2557 fps= 66 q=-1.0 size= 10752kB time=00:01:42.24 bitrate= 861.5kbits/
    frame= 2585 fps= 66 q=-1.0 size= 11008kB time=00:01:43.36 bitrate= 872.5kbits/
    frame= 2621 fps= 66 q=-1.0 size= 11264kB time=00:01:44.80 bitrate= 880.5kbits/
    frame= 2650 fps= 66 q=-1.0 size= 11520kB time=00:01:45.96 bitrate= 890.6kbits/
    frame= 2682 fps= 65 q=-1.0 Lsize= 11802kB time=00:01:47.24 bitrate= 901.6kbits
    /s speed=2.59x
    Last edited by therain; 31st Jan 2020 at 13:54.
    Quote Quote  
  4. Member
    Join Date
    Jan 2020
    Location
    BCS,LP, MX
    Search Comp PM
    wow! Thanks a lot therain
    Image
    [Attachment 51752 - Click to enlarge]

    .
    Could you please tell me how to use ffmpag with proxy?
    ffmpeg -loglevel debug -http_proxy http://proxyip:1234 -user_agent "Mozilla/5.0 (Windows NT 6.1; Win64; x64; rv:68.0) Gecko/20100101 Firefox/68.0" -i "https://h4ahsm.vkcache.com/secip/0/IU7dZ2QyRZJnEx4XpFDGqQ/MTc3LjI0Ni4yMjIuNzY=/1580547600/hls-vod-s03/flv/api/files/videos/2019/12/13/1576190398zxda6.mp4.m3u8" -c copy video.ts
    Image
    [Attachment 51753 - Click to enlarge]

    .
    Image
    [Attachment 51754 - Click to enlarge]
    Quote Quote  
  5. Member
    Join Date
    Nov 2015
    Location
    Campuchia - Sapoche
    Search Comp PM
    i don't using proxy for ffmpeg to download this site.
    See this thread for help

    https://forum.videohelp.com/threads/381385-Ffmpeg-with-http-proxy-not-working
    Quote Quote  
  6. Member
    Join Date
    Jan 2020
    Location
    BCS,LP, MX
    Search Comp PM
    thanks for all your help, you are very kind
    Quote Quote  
  7. Thanks. How can I acces master.m3u8 file?
    Quote Quote  



Similar Threads