VideoHelp Forum

Try DVDFab and download streaming video, copy, convert or make Blu-rays,DVDs! Download free trial !
+ Reply to Thread
Results 1 to 4 of 4
Thread
  1. i have been trying to convert a dolby digital trailer in vob format to mpeg1 in order to use it as an intro on a vcd.
    after defining the source file and output file i selected the "quicksettings for vob --> vcd mpeg1" and hit the encode button.

    i got the following error messages in the terminal:

    ************************************************** ************************

    Stream #0.0: Video: mpeg1video (hq), 352x288, 25.00 fps, q=2-13, 1150
    kb/s
    Stream #0.1: Audio: mp2, 48000 Hz, stereo, 224 kb/s
    Stream mapping:
    Stream #0.0 -> #0.0
    Stream #0.1 -> #0.1
    No accelerated IMDCT transform found
    Press [q] to stop encoding
    dyld: /Volumes/ffmpegX_0.0.4d/ffmpegX.app//Contents/Resources/ffmpeg
    Undefined symbols:
    /Volumes/ffmpegX_0.0.4d/ffmpegX.app//Contents/Resources/ffmpeg undefined
    reference to ___nan expected to be defined in /usr/lib/libSystem.B.dylib
    -2 is not a valid mpeg file
    (Super) VideoCD xml description created successfully as
    `/Users/marcbaie/Desktop/dvd and vcd stuff/vob files/test2.1.xml'
    ++ WARN: initializing libvcd 0.7.12 [darwin5.2/powerpc]
    ++ WARN:
    ++ WARN: this is the UNSTABLE development branch!
    ++ WARN: use only if you know what you are doing
    ++ WARN: see http://www.hvrlab.org/~hvr/vcdimager/ for more information
    ++ WARN:
    **ERROR: could not stat() file `/Users/marcbaie/Desktop/dvd and vcd
    stuff/vob files/test2-1.mpg': No such file or directory
    (Super) VideoCD xml description created successfully as
    `/Users/marcbaie/Desktop/dvd and vcd stuff/vob files/test2.2.xml'
    ++ WARN: initializing libvcd 0.7.12 [darwin5.2/powerpc]
    ++ WARN:
    ++ WARN: this is the UNSTABLE development branch!
    ++ WARN: use only if you know what you are doing
    ++ WARN: see http://www.hvrlab.org/~hvr/vcdimager/ for more information
    ++ WARN:
    **ERROR: could not stat() file `/Users/marcbaie/Desktop/dvd and vcd
    stuff/vob files/test2-2.mpg': No such file or directory
    Encoding complete!

    ************************************************** *********************************************

    i've tried it several times with different vob files, different directories and output filenames.
    i always get the same error messages.

    can anybody help me with this ? many thanks
    marc
    Quote Quote  
  2. Member
    Join Date
    Jun 2001
    Location
    Silver Spring, MD USA
    Search Comp PM
    Try using folder names (in your path) that do not contain spaces.
    Quote Quote  
  3. i have tried it with folder names that dont consist of spaces - but i am still getting the same error message:

    **ERROR: could not stat() file `/Users/marcbaie/Desktop/test-2.mpg': No such file or directory


    i named the output file "test.mpg" - i have no idea why it's trying to create a file called test-2.mpg.

    any help ?
    Quote Quote  
  4. here is the whole terminal output again - can anybody please help me ?

    Input #0, mpeg, from '/Users/marcbaie/Desktop/thx-tex2.vob':
    Stream #0.0: Video: mpegvideo, 720x480, 29.97 fps, 8500 kb/s
    Stream #0.1: Audio: ac3, 48000 Hz, 5:1, 384 kb/s
    Output #0, mpeg, to '/Users/marcbaie/Desktop/test':
    Stream #0.0: Video: mpeg1video (hq), 352x288, 25.00 fps, q=2-13, 1150 kb/s
    Stream #0.1: Audio: mp2, 48000 Hz, stereo, 224 kb/s
    Stream mapping:
    Stream #0.0 -> #0.0
    Stream #0.1 -> #0.1
    No accelerated IMDCT transform found
    Press [q] to stop encoding
    dyld: /Volumes/ffmpegX_0.0.4d/ffmpegX.app//Contents/Resources/ffmpeg Undefined symbols:
    /Volumes/ffmpegX_0.0.4d/ffmpegX.app//Contents/Resources/ffmpeg undefined reference to ___nan expected to be defined in /usr/lib/libSystem.B.dylib
    -2 is not a valid mpeg file
    (Super) VideoCD xml description created successfully as `/Users/marcbaie/Desktop/test.1.xml'
    ++ WARN: initializing libvcd 0.7.12 [darwin5.2/powerpc]
    ++ WARN:
    ++ WARN: this is the UNSTABLE development branch!
    ++ WARN: use only if you know what you are doing
    ++ WARN: see http://www.hvrlab.org/~hvr/vcdimager/ for more information
    ++ WARN:
    **ERROR: could not stat() file `/Users/marcbaie/Desktop/test-1.mpg': No such file or directory
    (Super) VideoCD xml description created successfully as `/Users/marcbaie/Desktop/test.2.xml'
    ++ WARN: initializing libvcd 0.7.12 [darwin5.2/powerpc]
    ++ WARN:
    ++ WARN: this is the UNSTABLE development branch!
    ++ WARN: use only if you know what you are doing
    ++ WARN: see http://www.hvrlab.org/~hvr/vcdimager/ for more information
    ++ WARN:
    **ERROR: could not stat() file `/Users/marcbaie/Desktop/test-2.mpg': No such file or directory
    Encoding complete!
    Quote Quote  



Similar Threads