VideoHelp Forum

Our website is made possible by displaying online advertisements to our visitors. Consider supporting us by disable your adblocker or Try ConvertXtoDVD and convert all your movies to DVD. Free trial ! :)
+ Reply to Thread
Results 1 to 2 of 2
Thread
  1. Major:
    I tried to convert a divx file to mpeg 2 compatible xsvcd. To avoid audio and video sync problems, i converted the audio and video seperately. The video went correctly, but ran too fast. Instead of being 40 min long, the movie became twenty and ran extremely too fast, but looked good. What went wrong? Thanks in advance, JAT

    my terminal window:
    Welcome to Darwin!
    pbpaste | sh
    [localhost:~] jat% pbpaste | sh
    Input #0, avi, from '/Users/jat/Desktop/One Hour Photo/One Hour Photo 1of2.avi':
    Stream #0.0: Video: msmpeg4, 352x240, 14.98 fps, q=0-0
    Stream #0.1: Audio: mp3, 24000 Hz, stereo, 56 kb/s
    Output #0, mpeg, to '/Users/jat/Desktop/One Hour Photo/FFMPEGX CONVERSIONS/CD1_Video.mpg':
    Stream #0.0: Video: mpeg1video (hq), 480x480, 29.97 fps, q=1-10, 2029 kb/s
    Stream mapping:
    Stream #0.0 -> #0.0
    Press [q] to stop encoding
    frame=41826 q= 3 size= 349238kB time=2791.2 bitrate=1025.0kbits/s
    bench: utime=4938.490s
    [localhost:~] jat%
    Quote Quote  
  2. The problem comes from the fps difference between your input and output (14.98 and 29.97).

    Check ffmpegX 0.0.4a and try mpeg-2 (here you were encoding in mpeg-1).
    Quote Quote  



Similar Threads