VideoHelp Forum
+ Reply to Thread
Results 1 to 1 of 1
Thread
  1. Dear all,

    I hope that my question isn't too stupid ...

    When I let BDInfo analyze a Blu-Ray, check a playlist on the first page and then view the report, there is a snippet like the following:

    Code:
    Name            Time In         Length          Size            Total Bitrate   
    ----            -------         ------          ----            -------------   
    00901.M2TS      0:00:00.000     0:02:27.564     690,032,640     37,409          
    00902.M2TS      0:02:27.564     0:47:31.098     15,872,372,736  44,537          
    00903.M2TS      0:49:58.662     0:00:58.308     325,883,904     44,712          
    00905.M2TS      0:50:56.970     0:01:36.513     533,944,320     44,259          
    00906.M2TS      0:52:33.483     0:01:57.784     659,306,496     44,781          
    00908.M2TS      0:54:31.267     1:10:13.292     23,059,986,432  43,785
    Now I simply would like to know whether the "Time In" values are computed by BDInfo (by whatever method) or whether they are determined in the playlist and BDInfo takes them from there.

    Thank you very much in advance!
    Last edited by pYPsfVARqM3nH7hD; 17th Feb 2024 at 13:22.
    Quote Quote  



Similar Threads

Visit our sponsor! Try DVDFab and backup Blu-rays!