VideoHelp Forum

+ Reply to Thread
Results 1 to 4 of 4
Thread
  1. It seems it plays several 3 audio tracks simultaneously and first 2 of 3 even does not belong to the opened MKV file. I had never seen this before.
    Image
    [Attachment 67037 - Click to enlarge]

    Image
    [Attachment 67038 - Click to enlarge]

    Code:
    General
    Unique ID                      : 71039988732363397557951602236894626339 (0x3571CDDD17C48A085A04390E6F464223)
    Complete name                  :<file.mkv>
    Format                         : Matroska
    Format version                 : Version 4 / Version 2
    File size                      : 2.39 GiB
    Duration                       : 44 min 11 s
    Overall bit rate mode          : Variable
    Overall bit rate               : 7 732 kb/s
    Writing application            : mkvmerge v70.0.0 ('Caught A Lite Sneeze') 64-bit
    Writing library                : libebml v1.4.2 + libmatroska v1.6.4
    
    Video
    ID                             : 1
    Format                         : AVC
    Format/Info                    : Advanced Video Codec
    Format profile                 : High@L4
    Format settings, CABAC         : Yes
    Format settings, RefFrames     : 4 frames
    Codec ID                       : V_MPEG4/ISO/AVC
    Duration                       : 44 min 11 s
    Bit rate mode                  : Variable
    Bit rate                       : 7 471 kb/s
    Maximum bit rate               : 12.7 Mb/s
    Width                          : 1 920 pixels
    Height                         : 1 080 pixels
    Display aspect ratio           : 16:9
    Frame rate mode                : Constant
    Frame rate                     : 25.000 FPS
    Color space                    : YUV
    Chroma subsampling             : 4:2:0
    Bit depth                      : 8 bits
    Scan type                      : Progressive
    Bits/(Pixel*Frame)             : 0.144
    Stream size                    : 2.31 GiB (97%)
    Default                        : Yes
    Forced                         : No
    Color range                    : Limited
    Color primaries                : BT.709
    Transfer characteristics       : BT.709
    Matrix coefficients            : BT.709
    
    Audio
    ID                             : 2
    Format                         : E-AC-3
    Format/Info                    : Enhanced Audio Coding 3
    Format settings, Endianness    : Big
    Codec ID                       : A_EAC3
    Duration                       : 44 min 11 s
    Bit rate mode                  : Constant
    Bit rate                       : 256 kb/s
    Channel(s)                     : 6 channels
    Channel positions              : Front: L C R, Side: L R, LFE
    Sampling rate                  : 48.0 kHz
    Frame rate                     : 187.500 FPS (256 SPF)
    Compression mode               : Lossy
    Stream size                    : 80.9 MiB (3%)
    Language                       : English
    Service kind                   : Complete Main
    Default                        : Yes
    Forced                         : No
    
    Text #1
    ID                             : 3
    Format                         : UTF-8
    Codec ID                       : S_TEXT/UTF8
    Codec ID/Info                  : UTF-8 Plain Text
    Duration                       : 43 min 59 s
    Bit rate                       : 89 b/s
    Count of elements              : 550
    Stream size                    : 28.9 KiB (0%)
    Language                       : English
    Default                        : No
    Forced                         : No
    
    ...
    Quote Quote  
  2. Turn off View -> Options -> Playback -> Auto Load Audio Files.
    Quote Quote  
  3. Thanks. So it seems it is loading with video all audio tracks with the same name...
    Quote Quote  
  4. Yes. Some people like to keep the video and audio in separate files. All the advanced players have a similar option for dealing with that.
    Quote Quote  



Similar Threads