VideoHelp Forum

+ Reply to Thread
Results 1 to 4 of 4
Thread
  1. Hello

    I have several BRrip from the same film (an animated film of 83 minutes) and I would like to combine the best track of each one in a single mkv (using mkvmerge).

    I have been trying to choose using mediainfo, but I don't have enough experience to interpretative the different parameters and values.

    Can you help me to choose? or explain me which values are more relevant and how to compare it?

    Video tracks:

    Option V1

    Code:
    Format                    : AVC
    Format/Info               : Advanced Video Codec
    Format profile            : High@L5.1
    Format settings           : CABAC / 4 Ref Frames
    Format settings, CABAC    : Yes
    Format settings, ReFrames : 4 frames
    Codec ID                  : V_MPEG4/ISO/AVC
    Duration                  : 1 h 22 min
    Bit rate                  : 4 820 kb/s
    Width                     : 1 920 pixels
    Height                    : 1 040 pixels
    Display aspect ratio      : 1.85:1
    Frame rate mode           : Constant
    Frame rate                : 23.976 (24000/1001) FPS
    Color space               : YUV
    Chroma subsampling        : 4:2:0
    Bit depth                 : 8 bits
    Scan type                 : Progressive
    Bits/(Pixel*Frame)        : 0.101
    Stream size               : 2.78 GiB
    Writing library           : x264 core 157 r2935 545de2f
    Encoding settings         : cabac=1 / ref=4 / deblock=1:1:1 / analyse=0x3:0x113 / me=hex / subme=4 / psy=1 / psy_rd=0.40:0.00 / mixed_ref=0 / me_range=16 / chroma_me=1 / trellis=1 / 8x8dct=1 / cqm=0 / deadzone=21,11 / fast_pskip=1 / chroma_qp_offset=0 / threads=6 / lookahead_threads=1 / sliced_threads=0 / nr=0 / decimate=1 / interlaced=0 / bluray_compat=0 / constrained_intra=0 / bframes=5 / b_pyramid=2 / b_adapt=1 / b_bias=0 / direct=1 / weightb=1 / open_gop=0 / weightp=1 / keyint=240 / keyint_min=24 / scenecut=40 / intra_refresh=0 / rc_lookahead=20 / rc=2pass / mbtree=1 / bitrate=4820 / ratetol=1.0 / qcomp=0.60 / qpmin=0 / qpmax=69 / qpstep=4 / cplxblur=20.0 / qblur=0.5 / vbv_maxrate=300000 / vbv_bufsize=300000 / nal_hrd=none / filler=0 / ip_ratio=1.40 / aq=1:0.60
    Color range               : Limited
    Color primaries           : BT.709
    Transfer characteristics  : BT.709
    Matrix coefficients       : BT.709
    Option V2

    Code:
    Format                    : AVC
    Format/Info               : Advanced Video Codec
    Format profile            : High@L4.1
    Format settings           : CABAC / 7 Ref Frames
    Format settings, CABAC    : Yes
    Format settings, ReFrames : 7 frames
    Codec ID                  : V_MPEG4/ISO/AVC
    Duration                  : 1 h 22 min
    Bit rate                  : 6 106 kb/s
    Width                     : 1 280 pixels
    Height                    : 694 pixels
    Display aspect ratio      : 1.85:1
    Frame rate mode           : Constant
    Frame rate                : 23.976 (24000/1001) FPS
    Color space               : YUV
    Chroma subsampling        : 4:2:0
    Bit depth                 : 8 bits
    Scan type                 : Progressive
    Bits/(Pixel*Frame)        : 0.287
    Stream size               : 3.53 GiB
    Writing library           : x264 core 120 r2120 0c7dab9
    Encoding settings         : cabac=1 / ref=7 / deblock=1:1:1 / analyse=0x3:0x133 / me=umh / subme=9 / psy=1 / psy_rd=0.40:0.00 / mixed_ref=1 / me_range=32 / chroma_me=1 / trellis=2 / 8x8dct=1 / cqm=0 / deadzone=21,11 / fast_pskip=0 / chroma_qp_offset=-2 / threads=12 / sliced_threads=0 / nr=0 / decimate=1 / interlaced=0 / bluray_compat=0 / constrained_intra=0 / bframes=5 / b_pyramid=2 / b_adapt=2 / b_bias=0 / direct=3 / weightb=1 / open_gop=0 / weightp=2 / keyint=240 / keyint_min=23 / scenecut=40 / intra_refresh=0 / rc_lookahead=60 / rc=2pass / mbtree=1 / bitrate=6106 / ratetol=1.0 / qcomp=0.60 / qpmin=0 / qpmax=69 / qpstep=4 / cplxblur=20.0 / qblur=0.5 / ip_ratio=1.40 / aq=1:0.60
    Option V4

    Code:
    Format                    : AVC
    Format/Info               : Advanced Video Codec
    Format profile            : High@L4.1
    Format settings           : CABAC / 4 Ref Frames
    Format settings, CABAC    : Yes
    Format settings, ReFrames : 4 frames
    Codec ID                  : V_MPEG4/ISO/AVC
    Duration                  : 1 h 22 min
    Bit rate                  : 13.8 Mb/s
    Width                     : 1 920 pixels
    Height                    : 1 040 pixels
    Display aspect ratio      : 1.85:1
    Frame rate mode           : Constant
    Frame rate                : 23.976 (24000/1001) FPS
    Color space               : YUV
    Chroma subsampling        : 4:2:0
    Bit depth                 : 8 bits
    Scan type                 : Progressive
    Bits/(Pixel*Frame)        : 0.288
    Stream size               : 7.96 GiB
    Writing library           : x264 core 148 r2638 7599210
    Encoding settings         : cabac=1 / ref=4 / deblock=1:-1:-1 / analyse=0x3:0x113 / me=umh / subme=9 / psy=1 / psy_rd=1.00:0.15 / mixed_ref=1 / me_range=32 / chroma_me=1 / trellis=2 / 8x8dct=1 / cqm=0 / deadzone=21,11 / fast_pskip=1 / chroma_qp_offset=-3 / threads=6 / lookahead_threads=1 / sliced_threads=0 / nr=0 / decimate=1 / interlaced=0 / bluray_compat=0 / constrained_intra=0 / bframes=5 / b_pyramid=2 / b_adapt=1 / b_bias=0 / direct=3 / weightb=1 / open_gop=0 / weightp=2 / keyint=230 / keyint_min=23 / scenecut=40 / intra_refresh=0 / rc_lookahead=60 / rc=crf / mbtree=1 / crf=20.0 / qcomp=0.60 / qpmin=0 / qpmax=69 / qpstep=4 / vbv_maxrate=30000 / vbv_bufsize=40000 / crf_max=0.0 / nal_hrd=none / filler=0 / ip_ratio=1.40 / aq=1:1.00
    Option V5

    Code:
    Format                    : AVC
    Format/Info               : Advanced Video Codec
    Format profile            : High@L4.1
    Format settings           : CABAC / 4 Ref Frames
    Format settings, CABAC    : Yes
    Format settings, ReFrames : 4 frames
    Codec ID                  : V_MPEG4/ISO/AVC
    Duration                  : 1 h 22 min
    Bit rate                  : 3 957 kb/s
    Width                     : 1 920 pixels
    Height                    : 1 040 pixels
    Display aspect ratio      : 1.85:1
    Frame rate mode           : Constant
    Frame rate                : 23.976 FPS
    Color space               : YUV
    Chroma subsampling        : 4:2:0
    Bit depth                 : 8 bits
    Scan type                 : Progressive
    Bits/(Pixel*Frame)        : 0.083
    Stream size               : 2.29 GiB
    Writing library           : x264 core 142 r2479 dd79a61
    Encoding settings         : cabac=1 / ref=4 / deblock=1:0:0 / analyse=0x3:0x133 / me=tesa / subme=11 / psy=1 / psy_rd=1.00:0.00 / mixed_ref=1 / me_range=24 / chroma_me=1 / trellis=2 / 8x8dct=1 / cqm=0 / deadzone=21,11 / fast_pskip=0 / chroma_qp_offset=-2 / threads=6 / lookahead_threads=1 / sliced_threads=0 / nr=0 / decimate=1 / interlaced=0 / bluray_compat=0 / constrained_intra=0 / bframes=16 / b_pyramid=2 / b_adapt=2 / b_bias=0 / direct=3 / weightb=1 / open_gop=0 / weightp=2 / keyint=240 / keyint_min=24 / scenecut=40 / intra_refresh=0 / rc_lookahead=60 / rc=crf / mbtree=1 / crf=26.0 / qcomp=0.60 / qpmin=0 / qpmax=69 / qpstep=4 / vbv_maxrate=62500 / vbv_bufsize=78125 / crf_max=0.0 / nal_hrd=none / filler=0 / ip_ratio=1.40 / aq=1:1.00
    Color range               : Limited
    Color primaries           : BT.709
    Transfer characteristics  : BT.709
    Matrix coefficients       : BT.709
    Option V6

    Code:
    Format                    : AVC
    Format/Info               : Advanced Video Codec
    Format profile            : High@L4.1
    Format settings           : CABAC / 4 Ref Frames
    Format settings, CABAC    : Yes
    Format settings, ReFrames : 4 frames
    Codec ID                  : V_MPEG4/ISO/AVC
    Duration                  : 1 h 22 min
    Bit rate mode             : Variable
    Bit rate                  : 12.8 Mb/s
    Maximum bit rate          : 40.0 Mb/s
    Width                     : 1 920 pixels
    Height                    : 1 040 pixels
    Display aspect ratio      : 1.85:1
    Frame rate mode           : Constant
    Frame rate                : 23.976 (24000/1001) FPS
    Color space               : YUV
    Chroma subsampling        : 4:2:0
    Bit depth                 : 8 bits
    Scan type                 : Progressive
    Bits/(Pixel*Frame)        : 0.268
    Stream size               : 7.25 GiB
    Writing library           : x264 core 114 r1924 08d04a4
    Encoding settings         : cabac=1 / ref=5 / deblock=1:0:0 / analyse=0x3:0x133 / me=umh / subme=7 / psy=1 / psy_rd=1.00:0.00 / mixed_ref=1 / me_range=32 / chroma_me=1 / trellis=2 / 8x8dct=1 / cqm=0 / deadzone=21,11 / fast_pskip=1 / chroma_qp_offset=-2 / threads=6 / sliced_threads=0 / slices=4 / nr=0 / decimate=1 / interlaced=0 / constrained_intra=0 / bframes=3 / b_pyramid=1 / b_adapt=2 / b_bias=0 / direct=1 / weightb=1 / open_gop=2 / weightp=2 / keyint=240 / keyint_min=23 / scenecut=40 / intra_refresh=0 / rc_lookahead=40 / rc=2pass / mbtree=1 / bitrate=12823 / ratetol=1.0 / qcomp=0.60 / qpmin=10 / qpmax=51 / qpstep=4 / cplxblur=20.0 / qblur=0.5 / vbv_maxrate=40000 / vbv_bufsize=40000 / nal_hrd=vbr / ip_ratio=1.40 / aq=1:1.00
    Spanish Audio tracks:

    Option SP1

    Code:
    Format                    : AAC
    Format/Info               : Advanced Audio Codec
    Format profile            : LC
    Codec ID                  : A_AAC-2
    Duration                  : 1 h 22 min
    Bit rate                  : 128 kb/s
    Channel(s)                : 2 channels
    Channel positions         : Front: L R
    Sampling rate             : 48.0 kHz
    Frame rate                : 46.875 FPS (1024 SPF)
    Compression mode          : Lossy
    Delay relative to video   : -21 ms
    Stream size               : 75.9 MiB
    Option SP2

    Code:
    Format                    : AC-3
    Format/Info               : Audio Coding 3
    Codec ID                  : A_AC3
    Duration                  : 1 h 22 min
    Bit rate mode             : Constant
    Bit rate                  : 256 kb/s
    Channel(s)                : 2 channels
    Channel positions         : Front: L R
    Sampling rate             : 48.0 kHz
    Frame rate                : 31.250 FPS (1536 SPF)
    Bit depth                 : 16 bits
    Compression mode          : Lossy
    Stream size               : 151 MiB
    Service kind              : Complete Main
    Option SP3

    Code:
    Format                    : AC-3
    Format/Info               : Audio Coding 3
    Codec ID                  : A_AC3
    Duration                  : 1 h 22 min
    Bit rate mode             : Constant
    Bit rate                  : 256 kb/s
    Channel(s)                : 2 channels
    Channel positions         : Front: L R
    Sampling rate             : 48.0 kHz
    Frame rate                : 31.250 FPS (1536 SPF)
    Bit depth                 : 16 bits
    Compression mode          : Lossy
    Delay relative to video   : -83 ms
    Stream size               : 151 MiB
    Service kind              : Complete Main
    Option SP4

    Code:
    Format                    : AC-3
    Format/Info               : Audio Coding 3
    Codec ID                  : A_AC3
    Duration                  : 1 h 22 min
    Bit rate mode             : Constant
    Bit rate                  : 192 kb/s
    Channel(s)                : 2 channels
    Channel positions         : Front: L R
    Sampling rate             : 48.0 kHz
    Frame rate                : 31.250 FPS (1536 SPF)
    Bit depth                 : 16 bits
    Compression mode          : Lossy
    Stream size               : 114 MiB
    Service kind              : Complete Main
    English Audio tracks:

    Option EN1

    Code:
    Format                    : AC-3
    Format/Info               : Audio Coding 3
    Codec ID                  : A_AC3
    Duration                  : 1 h 22 min
    Bit rate mode             : Constant
    Bit rate                  : 640 kb/s
    Channel(s)                : 2 channels
    Channel positions         : Front: L R
    Sampling rate             : 48.0 kHz
    Frame rate                : 31.250 FPS (1536 SPF)
    Bit depth                 : 16 bits
    Compression mode          : Lossy
    Delay relative to video   : -5 ms
    Stream size               : 379 MiB
    Service kind              : Complete Main
    Option EN2

    Code:
    Format                    : AAC
    Format/Info               : Advanced Audio Codec
    Format profile            : LC
    Codec ID                  : A_AAC-2
    Duration                  : 1 h 22 min
    Bit rate                  : 128 kb/s
    Channel(s)                : 2 channels
    Channel positions         : Front: L R
    Sampling rate             : 48.0 kHz
    Frame rate                : 46.875 FPS (1024 SPF)
    Compression mode          : Lossy
    Delay relative to video   : -21 ms
    Stream size               : 76.0 MiB
    Option EN3

    Code:
    Format                    : AC-3
    Format/Info               : Audio Coding 3
    Codec ID                  : A_AC3
    Duration                  : 1 h 22 min
    Bit rate mode             : Constant
    Bit rate                  : 448 kb/s
    Channel(s)                : 2 channels
    Channel positions         : Front: L R
    Sampling rate             : 48.0 kHz
    Frame rate                : 31.250 FPS (1536 SPF)
    Bit depth                 : 16 bits
    Compression mode          : Lossy
    Stream size               : 265 MiB
    Service kind              : Complete Main
    Option EN4

    Code:
    Format                    : AC-3
    Format/Info               : Audio Coding 3
    Codec ID                  : A_AC3
    Duration                  : 1 h 22 min
    Bit rate mode             : Constant
    Bit rate                  : 192 kb/s
    Channel(s)                : 2 channels
    Channel positions         : Front: L R
    Sampling rate             : 48.0 kHz
    Frame rate                : 31.250 FPS (1536 SPF)
    Bit depth                 : 16 bits
    Compression mode          : Lossy
    Stream size               : 114 MiB
    Service kind              : Complete Main
    Option EN5

    Code:
    Format                    : DTS
    Format/Info               : Digital Theater Systems
    Codec ID                  : A_DTS
    Duration                  : 1 h 22 min
    Bit rate mode             : Constant
    Bit rate                  : 1 509 kb/s
    Channel(s)                : 2 channels
    Channel positions         : Front: L R
    Sampling rate             : 48.0 kHz
    Frame rate                : 93.750 FPS (512 SPF)
    Bit depth                 : 24 bits
    Compression mode          : Lossy
    Delay relative to video   : -83 ms
    Stream size               : 893 MiB

    Thanks
    Last edited by cyttorak; 21st Nov 2021 at 08:37.
    Quote Quote  
  2. Member
    Join Date
    Mar 2011
    Location
    Nova Scotia, Canada
    Search Comp PM
    This isn't an allowed topic here but I'll say this. Many if not most of those 'brrips' are NOT made from the original bluray, they're a compressed copy of someone else's compressed copy made from the actual disk. Use your eyes/ears.
    Quote Quote  
  3. Originally Posted by Hoser Rob View Post
    Many if not most of those 'brrips' are NOT made from the original bluray, they're a compressed copy of someone else's compressed copy made from the actual disk.
    Did you see that in the mediainfo information? How can I know the source of a rip just using mediainfo?

    Thanks
    Quote Quote  
  4. Member
    Join Date
    Mar 2011
    Location
    Nova Scotia, Canada
    Search Comp PM
    You can't tell that from mediainfo but your eyes can definitely see the difference.
    Quote Quote  



Similar Threads