VideoHelp Forum

+ Reply to Thread
Results 1 to 11 of 11
Thread
  1. Merge with Lossless Cut resulted in frozen frames in playback.
    Quote Quote  
  2. Is there a way without re-encoding?
    Quote Quote  
  3. Originally Posted by Tom4 View Post
    Is there a way without re-encoding?
    It's without recoding
    Quote Quote  
  4. The site said processing, without any mention of lossless. Assumed it must of re-encoded.

    Is clever Ffmpeg-GUI a cleaner option than TMPGEnc MPEG?
    Read that TMPGEnc MPEG will make small changes at joins.

    When searching MPEG-4 Visual (DivX 5) you only find results for MPEG-1/2.
    Is MPEG-4 DivX 5 another format not native for all software listing MPEG-1/2?

    Seems confusing.

    I want to keep the exact original format to maintain original file history.
    Quote Quote  
  5. Member
    Join Date
    Mar 2008
    Location
    United States
    Search Comp PM
    Perhaps a mediainfo (text view) of the two files in question may help with further diagonsis
    Quote Quote  
  6. Other segments are exactly the same if required.

    General
    Complete name : C:\Users\1\Desktop\video\video01.mpg
    Format : AVI
    Format/Info : Audio Video Interleave
    File size : 3.93 MiB
    Duration : 41 s 328 ms
    Overall bit rate : 798 kb/s
    Writing library : VirtualDub build 13720/release
    FileExtension_Invalid : avi

    Video
    ID : 0
    Format : MPEG-4 Visual
    Format settings : BVOP
    Format settings, BVOP : Yes
    Format settings, QPel : No
    Format settings, GMC : No warppoints
    Format settings, Matrix : Default (H.263)
    Codec ID : DX50
    Codec ID/Hint : DivX 5
    Duration : 41 s 120 ms
    Bit rate : 784 kb/s
    Width : 360 pixels
    Height : 288 pixels
    Display aspect ratio : 5:4
    Frame rate : 25.000 FPS
    Color space : YUV
    Chroma subsampling : 4:2:0
    Bit depth : 8 bits
    Scan type : Progressive
    Compression mode : Lossy
    Bits/(Pixel*Frame) : 0.302
    Stream size : 3.84 MiB (98%)
    Writing library : DivX 5.0.0 (UTC 2002-03-04)

    Audio
    ID : 1
    Format : MPEG Audio
    Format version : Version 2.5
    Format profile : Layer 3
    Codec ID : 55
    Codec ID/Hint : MP3
    Duration : 41 s 328 ms
    Bit rate mode : Constant
    Bit rate : 8 000 b/s
    Channel(s) : 1 channel
    Sampling rate : 8 000 Hz
    Compression mode : Lossy
    Stream size : 40.4 KiB (1%)
    Alignment : Split across interleaves
    Interleave, duration : 73 ms (1.82 video frames)
    Interleave, preload duration : 394 ms
    Quote Quote  
  7. Member
    Join Date
    Mar 2008
    Location
    United States
    Search Comp PM
    Seems like it's an .avi file rather than .mpg, perhaps you should rename it
    Quote Quote  
  8. I was also wondering about that, are we certain that the file should be changed.
    Once before I found problems the way this program and premier read file data?
    Quote Quote  
  9. Member
    Join Date
    Mar 2008
    Location
    United States
    Search Comp PM
    Originally Posted by Tom4 View Post
    I was also wondering about that, are we certain that the file should be changed.
    Once before I found problems the way this program and premier read file data?
    Rename the files to avi.
    Did you try Avidemux to join (file/append) the files? There is a portable version here if you don't want to install it
    https://www.videohelp.com/software/AviDemux

    If it's doesn't work post the actual files here
    Quote Quote  
  10. Virtualdub replies cannot locate decompressor for 'DX50' (unknown).
    Will try avidemux and extension change.

    Lossless Cut works with the extension change to avi, best solution I have found.

    Thanks
    Last edited by Tom4; 11th Jul 2021 at 20:52.
    Quote Quote  



Similar Threads