VideoHelp Forum


Try NordVPN to access Netflix or other streaming services from any country and also surf safe!
+ Reply to Thread
Results 1 to 11 of 11
Thread
  1. Hi! I get this error message during a processing of my video from VirtualDub2:

    An out-of-bounds memory access (access violation) occurred in module 'avlib-1'...
    ...reading address 00000006...
    ...while running thread "Processing" (thread.cpp:197).

    and that's the result from crashinfo:

    VirtualDub2 crash report -- build 44015 (release)
    Disassembly:
    6563da20: 2389cfc74424 and ecx, [ecx+2444c7cf]
    6563da26: 0c00 or al, 00h
    6563da28: 0000 add [eax], al
    6563da2a: 0089442408c1 add [ecx-3ef7dbbc], cl
    6563da30: ef out dx, eax
    6563da31: 0583e70189 add eax, 8901e783
    6563da36: fe db 0feh
    6563da37: d3e7 shl edi, cl
    6563da39: 83f601 xor esi, 01h
    6563da3c: d3e6 shl esi, cl
    6563da3e: 397c240c cmp [esp+0ch], edi
    6563da42: 7e0c jle 6563da50
    6563da44: 31db xor ebx, ebx
    6563da46: 83c414 add esp, 14h
    6563da49: 89d8 mov eax, ebx
    6563da4b: 5b pop ebx
    6563da4c: 5e pop esi
    6563da4d: 5f pop edi
    6563da4e: 5d pop ebp
    6563da4f: c3 ret
    6563da50: 7d22 jge 6563da74
    6563da52: 890424 mov [esp], eax
    6563da55: c7442404001000 mov dword ptr [esp+04h], 00001000
    00
    6563da5d: 89e9 mov ecx, ebp
    6563da5f: 89d8 mov eax, ebx
    6563da61: e89afdffff call 6563d800
    6563da66: 85c0 test eax, eax
    6563da68: 78da js 6563da44
    6563da6a: 83c414 add esp, 14h
    6563da6d: 89d8 mov eax, ebx
    6563da6f: 5b pop ebx
    6563da70: 5e pop esi
    6563da71: 5f pop edi
    6563da72: 5d pop ebp
    6563da73: c3 ret
    6563da74: 39f0 cmp eax, esi
    6563da76: 72da jc 6563da52
    6563da78: 31db xor ebx, ebx
    6563da7a: ebca jmp 6563da46
    6563da7c: 8d742600 lea esi, [esi+00h]
    6563da80: 55 push ebp
    6563da81: 57 push edi
    6563da82: 56 push esi
    6563da83: 53 push ebx
    6563da84: 83ec08 sub esp, 08h
    6563da87: 8b5c241c mov ebx, [esp+1ch]
    6563da8b: 8b4c2424 mov ecx, [esp+24h]
    6563da8f: 8b6c2428 mov ebp, [esp+28h]
    6563da93: 8b442420 mov eax, [esp+20h]
    6563da97: 8b9300040000 mov edx, [ebx+400]
    6563da9d: 01cd add ebp, ecx
    6563da9f: 85d2 test edx, edx
    6563daa1: 0f858a000000 jnz 6563db31
    6563daa7: f6c103 test cl, 03h
    6563daaa: 7421 jz 6563dacd
    6563daac: 39e9 cmp ecx, ebp
    6563daae: 7206 jc 6563dab6
    6563dab0: eb1b jmp 6563dacd
    6563dab2: 39cd cmp ebp, ecx
    6563dab4: 7617 jbe 6563dacd
    6563dab6: 83c101 add ecx, 01h
    6563dab9: 0fb651ff movzx edx, byte ptr [ecx-01h] <-- FAULT
    6563dabd: 31c2 xor edx, eax
    6563dabf: c1e808 shr eax, 08h
    6563dac2: 0fb6d2 movzx edx, dl
    6563dac5: 330493 xor eax, [ebx+edx*4]
    6563dac8: f6c103 test cl, 03h
    6563dacb: 75e5 jnz 6563dab2
    6563dacd: 8d7dfd lea edi, [ebp-03h]
    6563dad0: 39cf cmp edi, ecx
    6563dad2: 893c24 mov [esp], edi
    6563dad5: 765a jbe 6563db31
    6563dad7: 89ce mov esi, ecx
    6563dad9: 894c2424 mov [esp+24h], ecx
    6563dadd: 896c2404 mov [esp+04h], ebp
    6563dae1: 89f9 mov ecx, edi
    6563dae3: 3306 xor eax, [esi]
    6563dae5: 83c604 add esi, 04h
    6563dae8: 89c2 mov edx, eax
    6563daea: 89c5 mov ebp, eax
    6563daec: c1ea10 shr edx, 10h
    6563daef: c1ed18 shr ebp, 18h
    6563daf2: 0fb6fa movzx edi, dl
    6563daf5: 0fb6d0 movzx edx, al
    6563daf8: 0fb6c4 movzx eax, ah
    6563dafb: 8b9493000c0000 mov edx, [ebx+edx*4+c00]
    6563db02: 3314ab xor edx, [ebx+ebp*4]
    6563db05: 33948300080000 xor edx, [ebx+eax*4+800]
    6563db0c: 8b84bb00040000 mov eax, [ebx+edi*4+400]
    6563db13: 31d0 xor eax, edx
    6563db15: 39ce cmp esi, ecx
    6563db17: 72ca jc 6563dae3
    6563db19: 8b4c2424 mov ecx, [esp+24h]
    6563db1d: 8b3424 mov esi, [esp]

    Built on Anton4 on Mon Dec 02 01:47:09 2019 using compiler version 1500

    Windows 6.3 (Windows 7 x64 build 9600) []
    Memory status: virtual free 68M/2048M, commit limit 30170M, physical total 8109M

    EAX = ffffffff
    EBX = 6709e580
    ECX = 00000007
    EDX = 00000000
    EBP = ffffffe0
    ESI = 0288f220
    EDI = 028a8f20
    ESP = 0c62fa58
    EIP = 6563dab9
    EFLAGS = 00010202
    FPUCW = 027f
    FPUTW = ffff

    Crash reason: Access Violation

    Crash context:
    An out-of-bounds memory access (access violation) occurred in module 'avlib-1'...

    ...reading address 00000006...

    ...while running thread "Processing" (thread.cpp:197).

    Pointer dumps:

    EBX 6709e580: 00000000 77073096 ee0e612c 990951ba 076dc419 706af48f e963a535 9e6495a3
    ESI 0288f220: 665899c0 00000001 028a9a60 028a9100 0000025c 00000000 00000008 00000000
    EDI 028a8f20: 66574e40 389bb540 00040000 389bb54c 389fb540 06c09c20 654da2f0 654da2e0
    ESP 0c62fa58: 00f20000 00000038 0290eba0 0288f220 028a8f20 0c62fc9c 65545579 6709e580
    0c62fa78: ffffffff 00000006 ffffffda 028fd488 02888558 00f20000 00000000 0c62fab4
    0c62fa98: 77e58786 00000000 00000000 00000000 02899ac0 87425bbc 00000000 00000008
    0c62fab8: 0c62fc94 ffffffda 00000000 00000001 d89dc176 00000000 00000000 00000000

    Thread call stack:
    6563dab9: avlib-1!VDDriverProc [64c40000+1b030+9e2a89]
    65545579: avlib-1!VDDriverProc [64c40000+1b030+8ea549]
    77e58786: ntdll!RtlFreeHeap [77e10000+48740+46]
    655480fc: avlib-1!VDDriverProc [64c40000+1b030+8ed0cc]
    77074db7: msvcrt!_aligned_free [77030000+44da0+17]
    65593e5b: avlib-1!VDDriverProc [64c40000+1b030+938e2b]
    770babb3: msvcrt!wcstok_s [77030000+8a920+293]
    64c80123: avlib-1!VDDriverProc [64c40000+1b030+250f3]
    65598538: avlib-1!VDDriverProc [64c40000+1b030+93d508]
    64c48c6f: avlib-1!00008c6f
    6565511c: avlib-1!VDDriverProc [64c40000+1b030+9fa0ec]
    77e5d1f8: ntdll!RtlRunOnceExecuteOnce [77e10000+4d1e0+18]
    656551ef: avlib-1!VDDriverProc [64c40000+1b030+9fa1bf]
    004b2e95: ?$VDRenderBufferAllocator::FreeFrame()
    64c48c6f: avlib-1!00008c6f
    77e816ac: ntdll!NtReleaseSemaphore [77e10000+716a0+c]
    76a83ac4: KERNELBASE!ReleaseSemaphore [76960000+123ab0+14]
    004b2e95: ?$VDRenderBufferAllocator::FreeFrame()
    0050a535: AVIOutputPluginStream::write()
    004289da: VDDubProcessThread::WriteAudio()
    0042eff4: VDStreamInterleaver::PushStreams()
    0042effc: VDStreamInterleaver::PushStreams()
    0042f4fd: VDStreamInterleaver::GetNextAction()
    00428e03: VDDubProcessThread::ThreadRun()
    00401737: ?$VDProtectedAutoScope1:$VDProtectedAutoScope1()
    0055d12d: VDThread::StaticThreadStart()
    0066e5de: _callthreadstartex()
    0066e686: _threadstartex@4()
    76b9fa29: KERNEL32!BaseThreadInitThunk [76b80000+1fa10+19]
    77e775f4: ntdll!RtlGetAppContainerNamedObjectPath [77e10000+67510+e4]
    77e775c4: ntdll!RtlGetAppContainerNamedObjectPath [77e10000+67510+b4]

    -- End of report

    And that's it! It's the only first time who having this problem since this bug I have does not circulate from online searches!
    Image Attached Files
    Quote Quote  
  2. Member
    Join Date
    Mar 2008
    Location
    United States
    Search Comp PM
    Update to the latest release to see if it's resolved.

    If not, provide full details of the source file, and output settings
    Quote Quote  
  3. General
    Complete name : C:\Users\XXXXX\Videos\ITALIA-RESTODEUROPA_.mp4
    Format : MPEG-4
    Format profile : Base Media
    Codec ID : isom (isom/iso2/avc1/mp41)
    File size : 3.81 GiB
    Duration : 1 h 47 min
    Overall bit rate mode : Variable
    Overall bit rate : 5 090 kb/s

    Video
    ID : 1
    Format : AVC
    Format/Info : Advanced Video Codec
    Format profile : High@L3.2
    Format settings : CABAC / 4 Ref Frames
    Format settings, CABAC : Yes
    Format settings, Reference : 4 frames
    Codec ID : avc1
    Codec ID/Info : Advanced Video Coding
    Duration : 1 h 47 min
    Bit rate : 5 000 kb/s
    Width : 1 024 pixels
    Height : 576 pixels
    Display aspect ratio : 16:9
    Frame rate mode : Constant
    Frame rate : 60.000 FPS
    Color space : YUV
    Chroma subsampling : 4:2:0
    Bit depth : 8 bits
    Scan type : Progressive
    Bits/(Pixel*Frame) : 0.141
    Stream size : 3.74 GiB (98%)
    Writing library : x264 core 140 r2377 1ca7bb9
    Encoding settings : cabac=1 / ref=3 / deblock=1:0:0 / analyse=0x3:0x113 / me=hex / subme=7 / psy=1 / psy_rd=1.00:0.00 / mixed_ref=1 / me_range=16 / chroma_me=1 / trellis=1 / 8x8dct=1 / cqm=0 / deadzone=21,11 / fast_pskip=1 / chroma_qp_offset=-2 / threads=6 / lookahead_threads=1 / sliced_threads=0 / nr=0 / decimate=1 / interlaced=0 / bluray_compat=0 / constrained_intra=0 / bframes=3 / b_pyramid=2 / b_adapt=1 / b_bias=0 / direct=1 / weightb=1 / open_gop=0 / weightp=2 / keyint=250 / keyint_min=25 / scenecut=40 / intra_refresh=0 / rc_lookahead=40 / rc=abr / mbtree=1 / bitrate=5000 / ratetol=1.0 / qcomp=0.60 / qpmin=0 / qpmax=69 / qpstep=4 / ip_ratio=1.40 / aq=1:1.00
    Codec configuration box : avcC

    Audio
    ID : 2
    Format : Ogg
    Codec ID : mp4a-DD
    Duration : 1 h 47 min
    Bit rate mode : Variable
    Bit rate : 79.8 kb/s
    Maximum bit rate : 112 kb/s
    Stream size : 61.1 MiB (2%)
    Default : Yes
    Alternate group : 1

    This is a input of a source file who has converted from Video FPS Converter.


    Unique ID : 2831898558939826930514192684993354293 (0x2216760F89FE1E41E9EB445F3AA1A35)
    Complete name : C:\Users\XXXXX\Documents\HD-1080p60.mkv
    Format : Matroska
    Format version : Version 4
    File size : 192 MiB
    Writing application : Lavf57.79.100
    Writing library : Lavf57.79.100
    IsTruncated : Yes
    ErrorDetectionType : Per level 1

    Video
    ID : 1
    Format : AVC
    Format/Info : Advanced Video Codec
    Format profile : High 10@L3.1
    Format settings : 3 Ref Frames
    Format settings, CABAC : No
    Format settings, Reference : 3 frames
    Codec ID : V_MPEG4/ISO/AVC
    Width : 768 pixels
    Height : 576 pixels
    Display aspect ratio : 4:3
    Frame rate mode : Constant
    Frame rate : 60.000 FPS
    Color space : YUV
    Chroma subsampling : 4:2:0
    Bit depth : 10 bits
    Scan type : Progressive
    Writing library : x264 core 157 r2935M 545de2f
    Encoding settings : cabac=0 / ref=3 / deblock=0:0:0 / analyse=0x3:0x113 / me=hex / subme=7 / psy=1 / psy_rd=1.00:0.00 / mixed_ref=1 / me_range=16 / chroma_me=1 / trellis=1 / 8x8dct=1 / cqm=0 / deadzone=21,11 / fast_pskip=1 / chroma_qp_offset=-2 / threads=4 / lookahead_threads=4 / sliced_threads=1 / slices=4 / nr=0 / decimate=1 / interlaced=0 / bluray_compat=0 / constrained_intra=0 / bframes=0 / weightp=0 / keyint=250 / keyint_min=25 / scenecut=40 / intra_refresh=0 / rc=crf / mbtree=0 / crf=23.0 / qcomp=0.60 / qpmin=0 / qpmax=81 / qpstep=4 / ip_ratio=1.40 / aq=1:1.00
    Default : Yes
    Forced : No
    Color range : Limited
    Matrix coefficients : BT.470 System B/G

    Audio
    ID : 2
    Format : PCM
    Format settings : Little
    Codec ID : A_PCM/FLOAT/IEEE
    Bit rate mode : Constant
    Bit rate : 2 822 kb/s
    Channel(s) : 2 channels

    This is an output settings of source file who converting from VirtualDub2.
    Last edited by VHGNM; 15th Apr 2021 at 15:15.
    Quote Quote  
  4. Member
    Join Date
    Mar 2008
    Location
    United States
    Search Comp PM
    Your post is still devoid of any details.

    Does it crash with just this video file, or with all files ?
    What video output codec did you choose?
    Are you processing audio? What audio compression did you pick?
    Any video filters used?
    Quote Quote  
  5. It only crashes with this 1 hour and 45 minute video file.
    The video codec is x264 10 bit - H.264 / MPEG-4 AVC codec.
    The audio compression is still absent, because is a standard quality of the original.
    I have used 4 filters (3 filters of logoaway and 1 filter of crop) to edit video.
    Quote Quote  
  6. Member
    Join Date
    Mar 2008
    Location
    United States
    Search Comp PM
    Remove the filters and see if it still crashes. If not, one of the filters probably to blame
    Quote Quote  
  7. The filters are used instead, because they remove the broadcast logo that disturbs the original video. Anyway the reference is to the file avlib-1.vdplugin, and I use the x86 version (since the x64 version does not have the same functions as the previous one).

    Also with the last version,this doesn't work! Reappear a message error on VDUB2 44282,its bug.

    An out-of-bounds memory access (access violation) occurred in module 'avlib-1'...
    ...reading address 00000006...
    ...while running thread "Processing" (thread.cpp:197).

    VirtualDub2 crash report -- build 44282 (release)
    Disassembly:
    6563da20: 2389cfc74424 and ecx, [ecx+2444c7cf]
    6563da26: 0c00 or al, 00h
    6563da28: 0000 add [eax], al
    6563da2a: 0089442408c1 add [ecx-3ef7dbbc], cl
    6563da30: ef out dx, eax
    6563da31: 0583e70189 add eax, 8901e783
    6563da36: fe db 0feh
    6563da37: d3e7 shl edi, cl
    6563da39: 83f601 xor esi, 01h
    6563da3c: d3e6 shl esi, cl
    6563da3e: 397c240c cmp [esp+0ch], edi
    6563da42: 7e0c jle 6563da50
    6563da44: 31db xor ebx, ebx
    6563da46: 83c414 add esp, 14h
    6563da49: 89d8 mov eax, ebx
    6563da4b: 5b pop ebx
    6563da4c: 5e pop esi
    6563da4d: 5f pop edi
    6563da4e: 5d pop ebp
    6563da4f: c3 ret
    6563da50: 7d22 jge 6563da74
    6563da52: 890424 mov [esp], eax
    6563da55: c7442404001000 mov dword ptr [esp+04h], 00001000
    00
    6563da5d: 89e9 mov ecx, ebp
    6563da5f: 89d8 mov eax, ebx
    6563da61: e89afdffff call 6563d800
    6563da66: 85c0 test eax, eax
    6563da68: 78da js 6563da44
    6563da6a: 83c414 add esp, 14h
    6563da6d: 89d8 mov eax, ebx
    6563da6f: 5b pop ebx
    6563da70: 5e pop esi
    6563da71: 5f pop edi
    6563da72: 5d pop ebp
    6563da73: c3 ret
    6563da74: 39f0 cmp eax, esi
    6563da76: 72da jc 6563da52
    6563da78: 31db xor ebx, ebx
    6563da7a: ebca jmp 6563da46
    6563da7c: 8d742600 lea esi, [esi+00h]
    6563da80: 55 push ebp
    6563da81: 57 push edi
    6563da82: 56 push esi
    6563da83: 53 push ebx
    6563da84: 83ec08 sub esp, 08h
    6563da87: 8b5c241c mov ebx, [esp+1ch]
    6563da8b: 8b4c2424 mov ecx, [esp+24h]
    6563da8f: 8b6c2428 mov ebp, [esp+28h]
    6563da93: 8b442420 mov eax, [esp+20h]
    6563da97: 8b9300040000 mov edx, [ebx+400]
    6563da9d: 01cd add ebp, ecx
    6563da9f: 85d2 test edx, edx
    6563daa1: 0f858a000000 jnz 6563db31
    6563daa7: f6c103 test cl, 03h
    6563daaa: 7421 jz 6563dacd
    6563daac: 39e9 cmp ecx, ebp
    6563daae: 7206 jc 6563dab6
    6563dab0: eb1b jmp 6563dacd
    6563dab2: 39cd cmp ebp, ecx
    6563dab4: 7617 jbe 6563dacd
    6563dab6: 83c101 add ecx, 01h
    6563dab9: 0fb651ff movzx edx, byte ptr [ecx-01h] <-- FAULT
    6563dabd: 31c2 xor edx, eax
    6563dabf: c1e808 shr eax, 08h
    6563dac2: 0fb6d2 movzx edx, dl
    6563dac5: 330493 xor eax, [ebx+edx*4]
    6563dac8: f6c103 test cl, 03h
    6563dacb: 75e5 jnz 6563dab2
    6563dacd: 8d7dfd lea edi, [ebp-03h]
    6563dad0: 39cf cmp edi, ecx
    6563dad2: 893c24 mov [esp], edi
    6563dad5: 765a jbe 6563db31
    6563dad7: 89ce mov esi, ecx
    6563dad9: 894c2424 mov [esp+24h], ecx
    6563dadd: 896c2404 mov [esp+04h], ebp
    6563dae1: 89f9 mov ecx, edi
    6563dae3: 3306 xor eax, [esi]
    6563dae5: 83c604 add esi, 04h
    6563dae8: 89c2 mov edx, eax
    6563daea: 89c5 mov ebp, eax
    6563daec: c1ea10 shr edx, 10h
    6563daef: c1ed18 shr ebp, 18h
    6563daf2: 0fb6fa movzx edi, dl
    6563daf5: 0fb6d0 movzx edx, al
    6563daf8: 0fb6c4 movzx eax, ah
    6563dafb: 8b9493000c0000 mov edx, [ebx+edx*4+c00]
    6563db02: 3314ab xor edx, [ebx+ebp*4]
    6563db05: 33948300080000 xor edx, [ebx+eax*4+800]
    6563db0c: 8b84bb00040000 mov eax, [ebx+edi*4+400]
    6563db13: 31d0 xor eax, edx
    6563db15: 39ce cmp esi, ecx
    6563db17: 72ca jc 6563dae3
    6563db19: 8b4c2424 mov ecx, [esp+24h]
    6563db1d: 8b3424 mov esi, [esp]

    Built on Anton4 on Fri Mar 20 00:39:01 2020 using compiler version 1500

    Windows 6.3 (Windows 7 x64 build 9600) []
    Memory status: virtual free 68M/2048M, commit limit 30170M, physical total 8109M

    EAX = ffffffff
    EBX = 6709e580
    ECX = 00000007
    EDX = 00000000
    EBP = ffffffe0
    ESI = 0288f220
    EDI = 028a8f20
    ESP = 0c62fa58
    EIP = 6563dab9
    EFLAGS = 00010202
    FPUCW = 027f
    FPUTW = ffff

    Crash reason: Access Violation

    Crash context:
    An out-of-bounds memory access (access violation) occurred in module 'avlib-1'...

    ...reading address 00000006...

    ...while running thread "Processing" (thread.cpp:197).

    Pointer dumps:

    EBX 6709e580: 00000000 77073096 ee0e612c 990951ba 076dc419 706af48f e963a535 9e6495a3
    ESI 0288f220: 665899c0 00000001 028a9a60 028a9100 0000025c 00000000 00000008 00000000
    EDI 028a8f20: 66574e40 389bb540 00040000 389bb54c 389fb540 06c09c20 654da2f0 654da2e0
    ESP 0c62fa58: 00f20000 00000038 0290eba0 0288f220 028a8f20 0c62fc9c 65545579 6709e580
    0c62fa78: ffffffff 00000006 ffffffda 028fd488 02888558 00f20000 00000000 0c62fab4
    0c62fa98: 77e58786 00000000 00000000 00000000 02899ac0 87425bbc 00000000 00000008
    0c62fab8: 0c62fc94 ffffffda 00000000 00000001 d89dc176 00000000 00000000 00000000

    Thread call stack:
    6563dab9: avlib-1!VDDriverProc [64c40000+1b030+9e2a89]
    65545579: avlib-1!VDDriverProc [64c40000+1b030+8ea549]
    77e58786: ntdll!RtlFreeHeap [77e10000+48740+46]
    655480fc: avlib-1!VDDriverProc [64c40000+1b030+8ed0cc]
    77074db7: msvcrt!_aligned_free [77030000+44da0+17]
    65593e5b: avlib-1!VDDriverProc [64c40000+1b030+938e2b]
    770babb3: msvcrt!wcstok_s [77030000+8a920+293]
    64c80123: avlib-1!VDDriverProc [64c40000+1b030+250f3]
    65598538: avlib-1!VDDriverProc [64c40000+1b030+93d508]
    64c48c6f: avlib-1!00008c6f
    6565511c: avlib-1!VDDriverProc [64c40000+1b030+9fa0ec]
    77e5d1f8: ntdll!RtlRunOnceExecuteOnce [77e10000+4d1e0+18]
    656551ef: avlib-1!VDDriverProc [64c40000+1b030+9fa1bf]
    004b2e95: ?$VDRenderBufferAllocator::FreeFrame()
    64c48c6f: avlib-1!00008c6f
    77e816ac: ntdll!NtReleaseSemaphore [77e10000+716a0+c]
    76a83ac4: KERNELBASE!ReleaseSemaphore [76960000+123ab0+14]
    004b2e95: ?$VDRenderBufferAllocator::FreeFrame()
    0050a535: AVIOutputPluginStream::write()
    004289da: VDDubProcessThread::WriteAudio()
    0042eff4: VDStreamInterleaver::PushStreams()
    0042effc: VDStreamInterleaver::PushStreams()
    0042f4fd: VDStreamInterleaver::GetNextAction()
    00428e03: VDDubProcessThread::ThreadRun()
    00401737: ?$VDProtectedAutoScope1VDProtectedAutoScope1()
    0055d12d: VDThread::StaticThreadStart()
    0066e5de: _callthreadstartex()
    0066e686: _threadstartex@4()
    76b9fa29: KERNEL32!BaseThreadInitThunk [76b80000+1fa10+19]
    77e775f4: ntdll!RtlGetAppContainerNamedObjectPath [77e10000+67510+e4]
    77e775c4: ntdll!RtlGetAppContainerNamedObjectPath [77e10000+67510+b4]

    -- End of report
    Last edited by VHGNM; 15th Apr 2021 at 21:33.
    Quote Quote  
  8. Member
    Join Date
    Mar 2008
    Location
    United States
    Search Comp PM
    If it only does it with the one source video, may be the video is bad ...
    Quote Quote  
  9. Try to encode only the video stream, without audio
    Quote Quote  
  10. Jet in the towel! VirtualDub2 is obsolete... And I am amazed at you that you do not know this hidden flaw that not even the useless manager of this program has not investigated after my reports on the tickets of their ******* site. https://sourceforge.net/p/vdfiltermod/tickets/405/ And anyway it's all the fault of this "avlib-1.vdplugin" file.
    Last edited by VHGNM; 16th Apr 2021 at 01:51.
    Quote Quote  
  11. However i'll fix it with a simple "Video To Video Converter" conversion.

    That's the results:

    General
    Complete name : C:\Users\XXXXXX\Videos\Captures\HD-1080p60.mp4
    Format : MPEG-4
    Format profile : Base Media
    Codec ID : isom (isom/iso2/avc1/mp41)
    File size : 1.27 GiB
    Duration : 1 h 47 min
    Overall bit rate : 1 703 kb/s

    Video
    ID : 1
    Format : AVC
    Format/Info : Advanced Video Codec
    Format profile : High@L4.2
    Format settings : CABAC / 4 Ref Frames
    Format settings, CABAC : Yes
    Format settings, Reference : 4 frames
    Codec ID : avc1
    Codec ID/Info : Advanced Video Coding
    Duration : 1 h 47 min
    Bit rate : 1 500 kb/s
    Width : 1 440 pixels
    Height : 1 080 pixels
    Display aspect ratio : 4:3
    Frame rate mode : Variable
    Frame rate : 60.000 FPS
    Minimum frame rate : 20.000 FPS
    Maximum frame rate : 60.000 FPS
    Color space : YUV
    Chroma subsampling : 4:2:0
    Bit depth : 8 bits
    Scan type : Progressive
    Bits/(Pixel*Frame) : 0.016
    Stream size : 1.12 GiB (88%)
    Writing library : x264 core 129
    Encoding settings : cabac=1 / ref=3 / deblock=1:0:0 / analyse=0x3:0x113 / me=hex / subme=7 / psy=1 / psy_rd=1.00:0.00 / mixed_ref=1 / me_range=16 / chroma_me=1 / trellis=1 / 8x8dct=1 / cqm=0 / deadzone=21,11 / fast_pskip=1 / chroma_qp_offset=-2 / threads=4 / lookahead_threads=1 / sliced_threads=0 / nr=0 / decimate=1 / interlaced=0 / bluray_compat=0 / constrained_intra=0 / bframes=3 / b_pyramid=2 / b_adapt=1 / b_bias=0 / direct=1 / weightb=1 / open_gop=0 / weightp=2 / keyint=250 / keyint_min=25 / scenecut=40 / intra_refresh=0 / rc_lookahead=40 / rc=abr / mbtree=1 / bitrate=1500 / ratetol=1.0 / qcomp=0.60 / qpmin=0 / qpmax=69 / qpstep=4 / ip_ratio=1.40 / aq=1:1.00
    Codec configuration box : avcC

    Audio
    ID : 2
    Format : AAC LC
    Format/Info : Advanced Audio Codec Low Complexity
    Codec ID : mp4a-40-2
    Duration : 1 h 47 min
    Bit rate mode : Constant
    Bit rate : 192 kb/s
    Channel(s) : 2 channels
    Channel layout : L R
    Sampling rate : 44.1 kHz
    Frame rate : 43.066 FPS (1024 SPF)
    Compression mode : Lossy
    Stream size : 147 MiB (11%)
    Default : Yes
    Alternate group : 1
    Last edited by VHGNM; 16th Apr 2021 at 04:23.
    Quote Quote  



Similar Threads