VideoHelp Forum


Try DVDFab Video Downloader and rip Netflix video! Or Try DVDFab and copy Blu-rays! or rip iTunes movies!
+ Reply to Thread
Results 1 to 26 of 26
Thread
  1. For some more clairification. Here is a video I tried to send someone in a text message. I'd do that if it would work so he could view the video. It was originally taken on another device, which was an Olympus digital camera that was mainly for taking stills but could take short videos as well. I tried to send it in a text and here is what happens when I try to send it to him in a text message, failedprocess.jpg If you need the video itself, I could send that to you/post it here if possible.

    Is there a way I can convert it to 16:9 with Adobe Premiere Pro CS6?

    The above video with that error message he WAS able to play when I sent it to him in an email on his phone, but NOT a segment of an MP4 I sent to him via email. I saved the segment as an MP4. He gets this message when it he tries to open it on his phone. Maybe do you need the player he is trying to use?

    The first error message hold it, I tried to email to him thought it was a little too big to send in an email- that THAT is why he couldn't open it. So I took an even shorter clip of the MP4, which had problem sending but he is still not able to open it. I can provide you with those clips as well, if you need them................I just have to find out how I can move screenshots from a text into my android gallery.........so that I can send them to my PC with feem.......did a google, don't want to use a third party tool if I can avoid it.
    Image Attached Thumbnails Click image for larger version

Name:	failedprocess.jpg
Views:	50
Size:	48.4 KB
ID:	57133  

    Quote Quote  
  2. wrong forum for my post?
    Quote Quote  
  3. Member
    Join Date
    Feb 2006
    Location
    United States
    Search Comp PM
    how big is the video that you are trying to send via email ??
    Quote Quote  
  4. 3.84MB not that big.
    Quote Quote  
  5. Member
    Join Date
    Feb 2006
    Location
    United States
    Search Comp PM
    Originally Posted by videofan70 View Post
    3.84MB not that big.
    have you tried sending the video through Gmail ??
    Quote Quote  
  6. Member
    Join Date
    Mar 2008
    Location
    United States
    Search Comp PM
    Could always zip it, may not reduce the size, but the file type may be acceptable now
    Quote Quote  
  7. Member Cornucopia's Avatar
    Join Date
    Oct 2001
    Location
    Deep in the Heart of Texas
    Search PM
    Zipping something so already highly compressed may take a while AND may actually make the resulting zip file BIGGER.
    Only reason to do that is to obfuscate the filetype into something more safe & compatible.


    Scott
    Quote Quote  
  8. Yes, I have tried sending it through Gmail. I'm trying to send it from my gmail account to his. Some of the videos I've already sent have been BIGGER in file size than that. It appears he is receiving it, just can't play it.
    Quote Quote  
  9. Member DB83's Avatar
    Join Date
    Jul 2007
    Location
    United Kingdom
    Search Comp PM
    If you have a Google account then you also have Google-Drive storage.


    Upload your video there and just share the link to it in your email. The receiver will still have the option to download it or simply view it.
    Quote Quote  
  10. Originally Posted by DB83 View Post
    If you have a Google account then you also have Google-Drive storage.


    Upload your video there and just share the link to it in your email. The receiver will still have the option to download it or simply view it.
    Ok, I'll try that. I still kind of want to know why he can't view, I'll take a look at his phone and see what happens when I try to view it. I also found the way to see that my phone puts things in the gallery, if I transfer media to my phone using feem, after it puts it in internal storage/oictures I used method # 1 here
    This very much depends on how you upload the images to the device. In order for the gallery app to pick them up, they must be added to the "media library", which is the job of the media-scanner. So that one needs to run after you've uploaded the image(s).

    There are quite a few events triggering the media scanner to do its job but e.g. uploading a file via FTP, or copying it with a file manager do not belong to that category. Things you can do to trigger it include:

    rebooting the device (media-scanner always runs at BOOT_COMPLETED)
    unmount and mount your SD card (it also runs whenever a new medium is attached)
    trigger a media scan via the the command line
    use a media scanner trigger app to trigger a scan manually
    And..........here is the error messages (may not be enough info, I'll still have to see what happens on his phone) when he tries to view the video, that he gets

    Image
    [Attachment 57247 - Click to enlarge]
    Quote Quote  
  11. Member Cornucopia's Avatar
    Join Date
    Oct 2001
    Location
    Deep in the Heart of Texas
    Search PM
    What does mediainfo say about the file (btw, it is also available for phones)?

    Could be it is corrupt, or non-supported format.


    Scott
    Quote Quote  
  12. Member
    Join Date
    Feb 2006
    Location
    United States
    Search Comp PM
    Originally Posted by videofan70 View Post
    Originally Posted by DB83 View Post
    If you have a Google account then you also have Google-Drive storage.


    Upload your video there and just share the link to it in your email. The receiver will still have the option to download it or simply view it.
    Ok, I'll try that. I still kind of want to know why he can't view, I'll take a look at his phone and see what happens when I try to view it. I also found the way to see that my phone puts things in the gallery, if I transfer media to my phone using feem, after it puts it in internal storage/oictures I used method # 1 here
    This very much depends on how you upload the images to the device. In order for the gallery app to pick them up, they must be added to the "media library", which is the job of the media-scanner. So that one needs to run after you've uploaded the image(s).

    There are quite a few events triggering the media scanner to do its job but e.g. uploading a file via FTP, or copying it with a file manager do not belong to that category. Things you can do to trigger it include:

    rebooting the device (media-scanner always runs at BOOT_COMPLETED)
    unmount and mount your SD card (it also runs whenever a new medium is attached)
    trigger a media scan via the the command line
    use a media scanner trigger app to trigger a scan manually
    And..........here is the error messages (may not be enough info, I'll still have to see what happens on his phone) when he tries to view the video, that he gets

    Image
    [Attachment 57247 - Click to enlarge]
    find out what phone model your friend has and see what video formats it accepts
    Quote Quote  
  13. Originally Posted by Cornucopia View Post
    What does mediainfo say about the file (btw, it is also available for phones)?

    Could be it is corrupt, or non-supported format.


    Scott
    Basically, I take a snippet from a much larger MP4 (a movie) in Adobe Premiere CS6 and export it an mp4 (though to do this you DON'T Choose the MPEG4 format, you chooise H.264), he's already viewed other MP4's I have sent that were even larger in filesize,He has an Iphone I'll have to see where I can see what formats it plays. Also, I have the mp4's he COULD watch, if you want to me show the mediainfo on them if you want, maybe there's a difference

    as for the mediainfo here it is:

    Under the text view, it lists this information:
    General
    Complete name : C:\Users\Administrator\Desktop\Sequence 01.mp4
    Format : MPEG-4
    Format profile : Base Media / Version 2
    Codec ID : mp42 (mp42/mp41)
    File size : 3.84 MiB
    Duration : 9 s 610 ms
    Overall bit rate mode : Variable
    Overall bit rate : 3 354 kb/s
    Encoded date : UTC 2021-01-29 21:45:05
    Tagged date : UTC 2021-01-29 21:45:05
    TIM : 00;00;00;00
    TSC : 30000
    TSZ : 1001

    Video
    ID : 1
    Format : AVC
    Format/Info : Advanced Video Codec
    Format profile : Main@L3.1
    Format settings : CABAC / 3 Ref Frames
    Format settings, CABAC : Yes
    Format settings, Reference frames : 3 frames
    Codec ID : avc1
    Codec ID/Info : Advanced Video Coding
    Duration : 9 s 610 ms
    Bit rate : 3 153 kb/s
    Width : 720 pixels
    Height : 480 pixels
    Display aspect ratio : 4:3
    Frame rate mode : Constant
    Frame rate : 29.970 (30000/1001) FPS
    Standard : NTSC
    Color space : YUV
    Chroma subsampling : 4:2:0
    Bit depth : 8 bits
    Scan type : Interlaced
    Scan type, store method : Separated fields
    Scan order : Bottom Field First
    Bits/(Pixel*Frame) : 0.304
    Stream size : 3.61 MiB (94%)
    Language : English
    Encoded date : UTC 2021-01-29 21:45:05
    Tagged date : UTC 2021-01-29 21:45:05
    Color range : Limited
    Codec configuration box : avcC

    Audio
    ID : 2
    Format : AAC LC
    Format/Info : Advanced Audio Codec Low Complexity
    Codec ID : mp4a-40-2
    Duration : 9 s 610 ms
    Source duration : 9 s 664 ms
    Bit rate mode : Variable
    Bit rate : 192 kb/s
    Maximum bit rate : 243 kb/s
    Channel(s) : 2 channels
    Channel layout : L R
    Sampling rate : 48.0 kHz
    Frame rate : 46.875 FPS (1024 SPF)
    Compression mode : Lossy
    Stream size : 222 KiB (6%)
    Source stream size : 223 KiB (6%)
    Language : English
    Encoded date : UTC 2021-01-29 21:45:05
    Tagged date : UTC 2021-01-29 21:45:05
    Last edited by videofan70; 8th Feb 2021 at 14:54.
    Quote Quote  
  14. Member DB83's Avatar
    Join Date
    Jul 2007
    Location
    United Kingdom
    Search Comp PM
    There appears something odd about the audio >> two run lengths.


    But do send a mediainfo report of a clip he can view.
    Quote Quote  
  15. Originally Posted by DB83 View Post
    There appears something odd about the audio >> two run lengths.


    But do send a mediainfo report of a clip he can view.
    Ok, here's one here's two he can view, the first one

    General
    Complete name : C:\Users\Administrator\Desktop\kanofirstgothim.mp4
    Format : MPEG-4
    Format profile : Facebook
    Codec ID : FACE (isom/avc1/FACE)
    File size : 5.06 MiB
    Duration : 4 min 27 s
    Overall bit rate mode : Variable
    Overall bit rate : 159 kb/s
    Encoded date : UTC 2010-06-01 03:32:31
    Tagged date : UTC 2010-06-02 03:32:31

    Video
    ID : 1
    Format : AVC
    Format/Info : Advanced Video Codec
    Format profile : Baseline@L1.2
    Format settings : 3 Ref Frames
    Format settings, CABAC : No
    Format settings, Reference frames : 3 frames
    Codec ID : avc1
    Codec ID/Info : Advanced Video Coding
    Duration : 4 min 27 s
    Bit rate : 121 kb/s
    Maximum bit rate : 325 kb/s
    Width : 320 pixels
    Height : 240 pixels
    Display aspect ratio : 4:3
    Frame rate mode : Constant
    Frame rate : 15.000 FPS
    Color space : YUV
    Chroma subsampling : 4:2:0
    Bit depth : 8 bits
    Scan type : Progressive
    Bits/(Pixel*Frame) : 0.105
    Stream size : 3.84 MiB (76%)
    Writing library : x264 core 72 r1232 c8edc12
    Encoding settings : cabac=0 / ref=3 / deblock=1:0:0 / analyse=0x1:0x111 / me=hex / subme=7 / psy=1 / psy_rd=1.0:0.0 / mixed_ref=1 / me_range=16 / chroma_me=1 / trellis=0 / 8x8dct=0 / cqm=0 / deadzone=21,11 / chroma_qp_offset=-2 / threads=6 / nr=0 / decimate=1 / mbaff=0 / bframes=0 / keyint=75 / keyint_min=15 / scenecut=40 / rc_lookahead=40 / rc=2pass / mbtree=1 / bitrate=121 / ratetol=1.0 / qcomp=0.60 / qpmin=10 / qpmax=51 / qpstep=4 / cplxblur=20.0 / qblur=0.5 / vbv_maxrate=145 / vbv_bufsize=605 / ip_ratio=1.40 / aq=1:1.00
    Encoded date : UTC 2010-06-01 03:32:31
    Tagged date : UTC 2010-06-01 03:32:31
    Codec configuration box : avcC

    Audio
    ID : 2
    Format : AAC LC
    Format/Info : Advanced Audio Codec Low Complexity
    Codec ID : mp4a-40-2
    Duration : 4 min 27 s
    Bit rate mode : Variable
    Bit rate : 36.8 kb/s
    Maximum bit rate : 44.0 kb/s
    Channel(s) : 1 channel
    Channel layout : C
    Sampling rate : 22.05 kHz
    Frame rate : 21.533 FPS (1024 SPF)
    Compression mode : Lossy
    Stream size : 1.17 MiB (23%)
    Encoded date : UTC 2010-06-01 03:32:31
    Tagged date : UTC 2010-06-01 03:32:31

    And the second:

    General
    Complete name : C:\Users\Administrator\Desktop\kanoinyard.mp4
    Format : MPEG-4
    Format profile : Facebook
    Codec ID : FACE (isom/avc1/FACE)
    File size : 7.58 MiB
    Duration : 4 min 49 s
    Overall bit rate mode : Variable
    Overall bit rate : 219 kb/s
    Encoded date : UTC 2010-06-01 04:10:14
    Tagged date : UTC 2010-06-02 04:10:15

    Video
    ID : 1
    Format : AVC
    Format/Info : Advanced Video Codec
    Format profile : Baseline@L1.2
    Format settings : 3 Ref Frames
    Format settings, CABAC : No
    Format settings, Reference frames : 3 frames
    Format settings, GOP : M=1, N=75
    Codec ID : avc1
    Codec ID/Info : Advanced Video Coding
    Duration : 4 min 49 s
    Bit rate : 182 kb/s
    Maximum bit rate : 351 kb/s
    Width : 320 pixels
    Height : 240 pixels
    Display aspect ratio : 4:3
    Frame rate mode : Constant
    Frame rate : 15.000 FPS
    Color space : YUV
    Chroma subsampling : 4:2:0
    Bit depth : 8 bits
    Scan type : Progressive
    Bits/(Pixel*Frame) : 0.158
    Stream size : 6.26 MiB (83%)
    Writing library : x264 core 72 r1232 c8edc12
    Encoding settings : cabac=0 / ref=3 / deblock=1:0:0 / analyse=0x1:0x111 / me=hex / subme=7 / psy=1 / psy_rd=1.0:0.0 / mixed_ref=1 / me_range=16 / chroma_me=1 / trellis=0 / 8x8dct=0 / cqm=0 / deadzone=21,11 / chroma_qp_offset=-2 / threads=6 / nr=0 / decimate=1 / mbaff=0 / bframes=0 / keyint=75 / keyint_min=15 / scenecut=40 / rc_lookahead=40 / rc=2pass / mbtree=1 / bitrate=182 / ratetol=1.0 / qcomp=0.60 / qpmin=10 / qpmax=51 / qpstep=4 / cplxblur=20.0 / qblur=0.5 / vbv_maxrate=218 / vbv_bufsize=912 / ip_ratio=1.40 / aq=1:1.00
    Encoded date : UTC 2010-06-01 04:10:14
    Tagged date : UTC 2010-06-01 04:10:15
    Codec configuration box : avcC

    Audio
    ID : 2
    Format : AAC LC
    Format/Info : Advanced Audio Codec Low Complexity
    Codec ID : mp4a-40-2
    Duration : 4 min 49 s
    Bit rate mode : Variable
    Bit rate : 36.8 kb/s
    Maximum bit rate : 40.8 kb/s
    Channel(s) : 1 channel
    Channel layout : C
    Sampling rate : 22.05 kHz
    Frame rate : 21.533 FPS (1024 SPF)
    Compression mode : Lossy
    Stream size : 1.27 MiB (17%)
    Encoded date : UTC 2010-06-01 04:10:15
    Tagged date : UTC 2010-06-01 04:10:15
    Quote Quote  
  16. Member DB83's Avatar
    Join Date
    Jul 2007
    Location
    United Kingdom
    Search Comp PM
    One thing I notice with those two samples is some form of Facebook preset. That is not in the first sample.
    Quote Quote  
  17. Originally Posted by DB83 View Post
    One thing I notice with those two samples is some form of Facebook preset. That is not in the first sample.
    Yes, I downloaded them from my facebook videos I had on my facebook page and sent them to him.
    Quote Quote  
  18. aBigMeanie aedipuss's Avatar
    Join Date
    Oct 2005
    Location
    666th portal
    Search Comp PM
    320x240p15 and the other is 720x480i29.97 - not even close to the same thing.
    --
    "a lot of people are better dead" - prisoner KSC2-303
    Quote Quote  
  19. Originally Posted by aedipuss View Post
    320x240p15 and the other is 720x480i29.97 - not even close to the same thing.
    you're talking about the two I posted that he COULD view, right? If you see in this thread, I originally tried to send it to him in a text and got that message, it may have been because I tried to change the aspect ratio of one so it would let me text it to him. I can get you the originals though.
    Quote Quote  
  20. Hmm, I edited the above post, but now it's back to the old one, unless I just hit preview, maybe, though I doubt it.
    Quote Quote  
  21. Member
    Join Date
    Feb 2006
    Location
    United States
    Search Comp PM
    Originally Posted by videofan70 View Post
    Hmm, I edited the above post, but now it's back to the old one, unless I just hit preview, maybe, though I doubt it.
    try using the mobile version of the facebook page, just change the www in the url to mbasic then you can easily save the video.
    and your friend should be able to watch the video - https://techviral.net/how-to-download-facebook-videos-without-any-tool/
    Quote Quote  
  22. Originally Posted by october262 View Post
    Originally Posted by videofan70 View Post
    Hmm, I edited the above post, but now it's back to the old one, unless I just hit preview, maybe, though I doubt it.
    try using the mobile version of the facebook page, just change the www in the url to mbasic then you can easily save the video.
    and your friend should be able to watch the video - https://techviral.net/how-to-download-facebook-videos-without-any-tool/
    That's not the video he can't watch, it's Sequence 01.mp4 he can't watch, which was never on facebook........unless you are saying I can somehow convert it to the format the videos that were on facebook are, (the ones with kano in the filenames)
    Quote Quote  
  23. Guess nobody really knows. It's probably unrelated, but I did want to start a video project, just kinda want to know why this doesn't work unless I run into it again. It must have some answer.
    Quote Quote  
  24. Member
    Join Date
    Mar 2008
    Location
    United States
    Search Comp PM
    Originally Posted by videofan70 View Post
    Guess nobody really knows.
    What exactly is your question?
    Quote Quote  
  25. Originally Posted by davexnet View Post
    Originally Posted by videofan70 View Post
    Guess nobody really knows.
    What exactly is your question?
    What the problem is with the Sequence01 file, why the person I am sending it to on his Iphone can't view/play the video.......and what can be done, if anything to fix it.
    Quote Quote  
  26. Member
    Join Date
    Mar 2008
    Location
    United States
    Search Comp PM
    Has your file recipient tried installing VLC on their device to see if it will then play?
    Quote Quote  



Similar Threads