VideoHelp Forum


Try DVDFab Video Downloader and rip Netflix video! Or Try DVDFab and copy Blu-rays! or rip iTunes movies!
+ Reply to Thread
Results 1 to 12 of 12
Thread
  1. Hello. I have an 403 error on the MPD link of this stream:

    https://rakuten.tv/it/movies/un-gran-giorno-per-morire

    So I cant download it........could be someone can try and tell me

    how can I bypass 403error? thank you

    register with fake email e select a pass then login
    Quote Quote  
  2. try adding --add-header "Range: bytes=0-690"
    Code:
    youtube-dl --add-header "Range: bytes=0-690" "link.mpd"
    Last edited by notaghost; 25th Jan 2021 at 16:27.
    notaghost#9997
    Quote Quote  
  3. Originally Posted by notaghost View Post
    try adding --add-header "Range: bytes=0-690"
    Code:
    youtube-dl --add-header "Range: bytes=0-690" "link.mpd"
    with this sintax start to download but files are only 2mb
    Quote Quote  
  4. change range
    https://imgur.com/XHn1dzH
    https://imgur.com/48WDPFF
    Code:
    General
    Format                                   : MPEG-4
    Format profile                           : Base Media
    Codec ID                                 : isom (isom/iso2/avc1/mp41/iso5/iso6)
    File size                                : 1.15 GiB
    Duration                                 : 1 h 41 min
    Overall bit rate mode                    : Variable
    Overall bit rate                         : 1 631 kb/s
    
    Video
    ID                                       : 1
    Format                                   : AVC
    Format/Info                              : Advanced Video Codec
    Format profile                           : Main@L3
    Format settings                          : CABAC / 4 Ref Frames
    Format settings, CABAC                   : Yes
    Format settings, Reference frames        : 4 frames
    Codec ID                                 : avc1
    Codec ID/Info                            : Advanced Video Coding
    Duration                                 : 1 h 41 min
    Bit rate                                 : 1 500 kb/s
    Width                                    : 720 pixels
    Height                                   : 404 pixels
    Display aspect ratio                     : 16:9
    Frame rate mode                          : Constant
    Frame rate                               : 23.976 FPS
    Color space                              : YUV
    Chroma subsampling                       : 4:2:0
    Bit depth                                : 8 bits
    Scan type                                : Progressive
    Bits/(Pixel*Frame)                       : 0.215
    Stream size                              : 1.05 GiB (91%)
    Writing library                          : x264 core 148 r2708 86b7198
    Encoding settings                        : cabac=1 / ref=4 / deblock=1:-1:-1 / analyse=0x1:0x111 / me=hex / subme=6 / psy=1 / psy_rd=1.00:0.15 / mixed_ref=1 / me_range=16 / chroma_me=1 / trellis=1 / 8x8dct=0 / cqm=0 / deadzone=21,11 / fast_pskip=1 / chroma_qp_offset=-3 / threads=12 / lookahead_threads=2 / sliced_threads=0 / nr=0 / decimate=1 / interlaced=0 / bluray_compat=0 / constrained_intra=0 / bframes=3 / b_pyramid=2 / b_adapt=1 / b_bias=0 / direct=1 / weightb=1 / open_gop=0 / weightp=1 / keyint=48 / keyint_min=24 / scenecut=0 / intra_refresh=0 / rc_lookahead=30 / rc=cbr / mbtree=1 / bitrate=1500 / ratetol=1.0 / qcomp=0.60 / qpmin=0 / qpmax=69 / qpstep=4 / vbv_maxrate=1500 / vbv_bufsize=4500 / nal_hrd=none / filler=0 / ip_ratio=1.40 / aq=1:1.00
    Codec configuration box                  : avcC
    
    Audio
    ID                                       : 2
    Format                                   : AAC LC
    Format/Info                              : Advanced Audio Codec Low Complexity
    Codec ID                                 : mp4a-40-2
    Duration                                 : 1 h 41 min
    Bit rate mode                            : Variable
    Bit rate                                 : 128 kb/s
    Maximum bit rate                         : 1 500 kb/s
    Channel(s)                               : 2 channels
    Channel layout                           : L R
    Sampling rate                            : 44.1 kHz
    Frame rate                               : 43.066 FPS (1024 SPF)
    Compression mode                         : Lossy
    Stream size                              : 92.7 MiB (8%)
    Language                                 : Italian
    Default                                  : Yes
    Alternate group                          : 1
    notaghost#9997
    Quote Quote  
  5. Member
    Join Date
    Jan 2019
    Location
    hawai
    Search PM
    downloaded the video and decrypted with bento, the video can be seen jerky and the audio is late...
    with ffmpeg worst.
    player tested: VLC, gomplayer, potplayer

    other: widevine decryptor ... we have for firefox?
    Last edited by lomero; 31st Jan 2021 at 08:33.
    Quote Quote  
  6. Doesn't work with Firefox Browser.
    Quote Quote  
  7. Member
    Join Date
    Jan 2019
    Location
    hawai
    Search PM
    can anyone download this video (decrypted)?
    Quote Quote  
  8. extension works on Firefox Browser.
    https://imgur.com/KU7XKK6
    notaghost#9997
    Quote Quote  
  9. OK. Probably the code has been modified. It doesn't work for me.

    Upd.

    Understood. Working.
    Last edited by LZAA; 2nd Feb 2021 at 16:44.
    Quote Quote  
  10. Member
    Join Date
    Jan 2019
    Location
    hawai
    Search PM
    Originally Posted by LZAA View Post
    Probably the code has been modified
    extension is old. 30 Oct 2020. no modify

    but notaghost how to add to firefox? drag&drop folder not work.
    Quote Quote  
  11. Member
    Join Date
    Jan 2019
    Location
    hawai
    Search PM
    nice. tanxs LZZA for your work.
    Quote Quote  



Similar Threads