VideoHelp Forum


Try DVDFab Video Downloader and rip Netflix video! Or Try DVDFab and copy Blu-rays! or rip iTunes movies!
+ Reply to Thread
Results 1 to 12 of 12
Thread
  1. Hi you fine people,
    I tried all day...I can't get a working file.
    Please help. All you gotta do to access this free concert is enter your email.
    https://fans.live/livestream/20201125-the-complete-last-waltz/

    Thanks for help!
    Quote Quote  
  2. Need access.
    Quote Quote  
  3. Member
    Join Date
    Jan 2019
    Location
    hawai
    Search PM
    Code:
    youtube-dl https://vod.livestream.com/5fc026a9_5093cdbf2b67891d5650fb53f9bbf0fe2835b287/events/00000000008f8e6d/8a3fbb95-7e30-4712-bddb-1c1d120ad5f2_4628.m3u8?start=1764&end=12540
    Quote Quote  
  4. thanks but I get an error with this command line.

    [NULL @ 000001ef49a81840] non-existing SPS 0 referenced in buffering period
    [h264 @ 000001ef4a116580] non-existing SPS 0 referenced in buffering period
    Input #0, hls, from 'https://vod.livestream.com/5fc026a9_5093cdbf2b67891d5650fb53f9bbf0fe2835b287/events/00000000008f8e6d/8a3fbb95-7e30-4712-bddb-1c1d120ad5f2_4628.m3u8?start=1764':
    Duration: 13:03:01.18, start: 0.700000, bitrate: 0 kb/s
    Program 0
    Metadata:
    variant_bitrate : 0
    Stream #0:0: Video: h264 (Main) ([27][0][0][0] / 0x001B), yuv420p, 1920x1080 [SAR 1:1 DAR 16:9], 23.98 fps, 23.98 tbr, 90k tbn, 47.95 tbc
    Metadata:
    variant_bitrate : 0
    Stream #0:1: Audio: aac (LC) ([15][0][0][0] / 0x000F), 44100 Hz, stereo, fltp
    Metadata:
    variant_bitrate : 0
    file:8a3fbb95-7e30-4712-bddb-1c1d120ad5f2_4628-8a3fbb95-7e30-4712-bddb-1c1d120ad5f2_4628.mp4.part: Permission denied

    ERROR: ffmpeg exited with code 1
    Der Befehl "end" ist entweder falsch geschrieben oder
    konnte nicht gefunden werden
    Quote Quote  
  5. Member
    Join Date
    Jan 2019
    Location
    hawai
    Search PM
    first: put ffmpeg.exe on same folder on yuotube-dl
    second: go fast... download link change!
    Code:
    youtube-dl https://vod.livestream.com/5fc07c2c_1a09e284d63e12e1564894c7de258f18410b4727/events/00000000008f8e6d/8a3fbb95-7e30-4712-bddb-1c1d120ad5f2_4628.m3u8?start=1764&end=12540
    Quote Quote  
  6. Member DB83's Avatar
    Join Date
    Jul 2007
    Location
    United Kingdom
    Search Comp PM
    Could that link be exclusive for the user ?
    Quote Quote  
  7. Originally Posted by DB83 View Post
    Could that link be exclusive for the user ?
    does not look like it. i used the same url lomero posted and i could download it
    Image
    [Attachment 55999 - Click to enlarge]
    notaghost#9997
    Quote Quote  
  8. aBigMeanie aedipuss's Avatar
    Join Date
    Oct 2005
    Location
    666th portal
    Search Comp PM
    some of it downloaded with the url. the end was cut off too soon. and from what i saw it's not worth the minimum $5 payment to get the download link.
    --
    "a lot of people are better dead" - prisoner KSC2-303
    Quote Quote  
  9. you get a download link if you donate? for some of the last videos on this site I donated but there was no download link
    Quote Quote  
  10. ffmpeg is already in the same folder


    Originally Posted by lomero View Post
    first: put ffmpeg.exe on same folder on yuotube-dl
    second: go fast... download link change!
    Code:
    youtube-dl https://vod.livestream.com/5fc07c2c_1a09e284d63e12e1564894c7de258f18410b4727/events/00000000008f8e6d/8a3fbb95-7e30-4712-bddb-1c1d120ad5f2_4628.m3u8?start=1764&end=12540
    Quote Quote  
  11. Member DB83's Avatar
    Join Date
    Jul 2007
    Location
    United Kingdom
    Search Comp PM
    Good game then.


    Get spammed to watch some of the concert and then pay up to (hopefully) see the rest.
    Quote Quote  
  12. I managed to download it with the videodownloadhelper pluging. strange thing though it didn't work with chrome but with firefox it worked
    Quote Quote  



Similar Threads