VideoHelp Forum

Try DVDFab and copy Ultra HD Blu-rays and DVDs! Or rip iTunes movies and music! Download free trial !
+ Reply to Thread
Results 1 to 6 of 6
Thread
  1. Member
    Join Date
    May 2004
    Location
    Brazil
    Search Comp PM
    I have been using Vidcoder for many years.

    I already have my settings for high grade conversions and another for DVD to mkv conversions. Sometimes the files are already mkv, but I prefer to convert them to 720p.

    Yesterday something unusual happened on one of this simpler conversions: the audio is out of sync, which in the original is not.

    Any hints on what might be affecting the audio sync and causing this?
    Quote Quote  
  2. Member
    Join Date
    Aug 2013
    Location
    Central Germany
    Search PM
    Does a MediaInfo report in Advanced mode reveal any reason? Maybe the source MKV contains a stretch-audio flag...
    Quote Quote  
  3. Member
    Join Date
    May 2004
    Location
    Brazil
    Search Comp PM
    On what file and how do I locate that information? The original or the converted one?

    How do I enter into advanced mode?
    Quote Quote  
  4. Member
    Join Date
    Aug 2013
    Location
    Central Germany
    Search PM
    Always the original file.

    If you use the GUI version of MediaInfo, select the "Text" report mode and enable the "Advanced mode" in the Debug menu. In case of the CLI version, use the parameter "-f".

    Post the whole text report as attachment, as pastebin link, or maybe in a CODE block (click the "Go Advanced" button at the bottom of the Quick Reply).
    Quote Quote  
  5. Member
    Join Date
    May 2004
    Location
    Brazil
    Search Comp PM
    General
    Count : 331
    Count of stream of this kind : 1
    Kind of stream : General
    Kind of stream : General
    Stream identifier : 0
    Inform : Matroska: 1.18 GiB, 1 h 19 min
    Unique ID : 311143603900408098960316601697161393652
    Unique ID : 311143603900408098960316601697161393652 (0xEA1414106CF82EA24B2C61A6D6D735F4)
    Count of video streams : 1
    Count of audio streams : 1
    Count of menu streams : 1
    Video_Format_List : AVC
    Video_Format_WithHint_List : AVC
    Codecs Video : AVC
    Video_Language_List : English
    Audio_Format_List : AC-3
    Audio_Format_WithHint_List : AC-3
    Audio codecs : AC-3
    Audio_Language_List : English
    Complete name : H:\uTorrent\The.Blues.2003.DVDRip.x264-HANDJOB[rarbg]\The.Blues.S01E01.Feel.Like.Going.Home.DVDRip.x264-HANDJOB.mkv
    Folder name : H:\uTorrent\The.Blues.2003.DVDRip.x264-HANDJOB[rarbg]
    File name : The.Blues.S01E01.Feel.Like.Going.Home.DVDRip.x264-HANDJOB.mkv
    File name : The.Blues.S01E01.Feel.Like.Going.Home.DVDRip.x264-HANDJOB
    File extension : mkv
    Format : Matroska
    Format : Matroska
    Format/Url : https://matroska.org/downloads/windows.html
    Format/Extensions usually used : mkv mk3d mka mks
    Commercial name : Matroska
    Format version : Version 4
    File size : 1265931429
    File size : 1.18 GiB
    File size : 1 GiB
    File size : 1.2 GiB
    File size : 1.18 GiB
    File size : 1.179 GiB
    Duration : 4757795
    Duration : 1 h 19 min
    Duration : 1 h 19 min 17 s 795 ms
    Duration : 1 h 19 min
    Duration : 01:19:17.795
    Duration : 01:19:19;01
    Duration : 01:19:17.795 (01:19:19;01)
    Overall bit rate : 2128602
    Overall bit rate : 2 129 kb/s
    Frame rate : 23.976
    Frame rate : 23.976 FPS
    Frame count : 114073
    Stream size : 1010752
    Stream size : 987 KiB (0%)
    Stream size : 987 KiB
    Stream size : 987 KiB
    Stream size : 987 KiB
    Stream size : 987.1 KiB
    Stream size : 987 KiB (0%)
    Proportion of this stream : 0.00080
    IsStreamable : Yes
    Encoded date : UTC 2014-09-05 07:14:35
    File creation date : UTC 2020-09-19 21:59:27.419
    File creation date (local) : 2020-09-19 18:59:27.419
    File last modification date : UTC 2020-09-20 02:00:17.560
    File last modification date (local) : 2020-09-19 23:00:17.560
    Writing application : mkvmerge v7.1.0 ('Good Love') 64bit
    Writing application : mkvmerge v7.1.0 ('Good Love') 64bit
    Writing library : libebml v1.3.0 + libmatroska v1.4.1
    Writing library : libebml v1.3.0 + libmatroska v1.4.1

    Video
    Count : 347
    Count of stream of this kind : 1
    Kind of stream : Video
    Kind of stream : Video
    Stream identifier : 0
    StreamOrder : 0
    Inform : English, 1 679 kb/s, 720*474 (16:9), at 23.976 (24000/1001) FPS, AVC (High@L4) (CABAC / 16 Ref Frames)
    ID : 1
    ID : 1
    Unique ID : 361679948
    Format : AVC
    Format : AVC
    Format/Info : Advanced Video Codec
    Format/Url : http://developers.videolan.org/x264.html
    Commercial name : AVC
    Format profile : High@L4
    Format settings : CABAC / 16 Ref Frames
    Format settings, CABAC : Yes
    Format settings, CABAC : Yes
    Format settings, RefFrames : 16
    Format settings, RefFrames : 16 frames
    Internet media type : video/H264
    Codec ID : V_MPEG4/ISO/AVC
    Codec ID/Url : http://ffdshow-tryout.sourceforge.net/
    Duration : 4757795.000000
    Duration : 1 h 19 min
    Duration : 1 h 19 min 17 s 795 ms
    Duration : 1 h 19 min
    Duration : 01:19:17.795
    Duration : 01:19:19;01
    Duration : 01:19:17.795 (01:19:19;01)
    Bit rate : 1678902
    Bit rate : 1 679 kb/s
    Width : 720
    Width : 720 pixels
    Height : 474
    Height : 474 pixels
    Stored_Height : 480
    Sampled_Width : 720
    Sampled_Height : 474
    Pixel aspect ratio : 1.185
    Display aspect ratio : 1.800
    Display aspect ratio : 16:9
    Frame rate mode : CFR
    Frame rate mode : Constant
    Frame rate : 23.976
    Frame rate : 23.976 (24000/1001) FPS
    FrameRate_Num : 24000
    FrameRate_Den : 1001
    Frame count : 114073
    Color space : YUV
    Chroma subsampling : 4:2:0
    Chroma subsampling : 4:2:0
    Bit depth : 8
    Bit depth : 8 bits
    Scan type : Progressive
    Scan type : Progressive
    Bits/(Pixel*Frame) : 0.205
    Delay : 0
    Delay : 00:00:00.000
    Delay, origin : Container
    Delay, origin : Container
    Stream size : 998484325
    Stream size : 952 MiB (79%)
    Stream size : 952 MiB
    Stream size : 952 MiB
    Stream size : 952 MiB
    Stream size : 952.2 MiB
    Stream size : 952 MiB (79%)
    Proportion of this stream : 0.78873
    Writing library : x264 - core 130 r2273 b3065e6
    Writing library : x264 core 130 r2273 b3065e6
    Encoded_Library_Name : x264
    Encoded_Library_Version : core 130 r2273 b3065e6
    Encoding settings : cabac=1 / ref=16 / deblock=1:-3:-3 / analyse=0x3:0x133 / me=umh / subme=10 / psy=1 / psy_rd=1.00:0.00 / mixed_ref=1 / me_range=32 / chroma_me=1 / trellis=2 / 8x8dct=1 / cqm=0 / deadzone=21,11 / fast_pskip=0 / chroma_qp_offset=-2 / threads=12 / lookahead_threads=2 / sliced_threads=0 / nr=0 / decimate=1 / interlaced=0 / bluray_compat=0 / constrained_intra=0 / bframes=9 / b_pyramid=2 / b_adapt=2 / b_bias=0 / direct=3 / weightb=1 / open_gop=0 / weightp=2 / keyint=240 / keyint_min=24 / scenecut=40 / intra_refresh=0 / rc_lookahead=60 / rc=crf / mbtree=1 / crf=19.0 / qcomp=0.60 / qpmin=0 / qpmax=69 / qpstep=4 / ip_ratio=1.40 / aq=1:1.00
    Language : en
    Language : English
    Language : English
    Language : en
    Language : eng
    Language : en
    Default : Yes
    Default : Yes
    Forced : No
    Forced : No
    Color range : Limited
    colour_description_present : Yes
    Color primaries : BT.601 NTSC
    Transfer characteristics : BT.709
    Matrix coefficients : BT.601

    Audio
    Count : 307
    Count of stream of this kind : 1
    Kind of stream : Audio
    Kind of stream : Audio
    Stream identifier : 0
    StreamOrder : 1
    Inform : English, 448 kb/s, 48.0 kHz, 16 bits, 6 channels, AC-3 (Dolby Digital)
    ID : 2
    ID : 2
    Unique ID : 1484066687
    Format : AC-3
    Format : AC-3
    Format/Info : Audio Coding 3
    Format/Url : https://en.wikipedia.org/wiki/AC3
    Commercial name : Dolby Digital
    Commercial name : Dolby Digital
    Format settings, Endianness : Big
    Codec ID : A_AC3
    Duration : 4757792.000000
    Duration : 1 h 19 min
    Duration : 1 h 19 min 17 s 792 ms
    Duration : 1 h 19 min
    Duration : 01:19:17.792
    Duration : 01:19:56:05
    Duration : 01:19:17.792 (01:19:56:05)
    Bit rate mode : CBR
    Bit rate mode : Constant
    Bit rate : 448000
    Bit rate : 448 kb/s
    Channel(s) : 6
    Channel(s) : 6 channels
    Channel positions : Front: L C R, Side: L R, LFE
    Channel positions : 3/2/0.1
    Channel layout : L R C LFE Ls Rs
    Samples per frame : 1536
    Sampling rate : 48000
    Sampling rate : 48.0 kHz
    Samples count : 228374016
    Frame rate : 31.250
    Frame rate : 31.250 FPS (1536 SPF)
    Frame count : 148681
    Bit depth : 16
    Bit depth : 16 bits
    Compression mode : Lossy
    Compression mode : Lossy
    Delay : 0
    Delay : 00:00:00.000
    Delay, origin : Container
    Delay, origin : Container
    Delay relative to video : 0
    Delay relative to video : 00:00:00.000
    Stream size : 266436352
    Stream size : 254 MiB (21%)
    Stream size : 254 MiB
    Stream size : 254 MiB
    Stream size : 254 MiB
    Stream size : 254.1 MiB
    Stream size : 254 MiB (21%)
    Proportion of this stream : 0.21047
    Language : en
    Language : English
    Language : English
    Language : en
    Language : eng
    Language : en
    Service kind : CM
    Service kind : Complete Main
    Default : Yes
    Default : Yes
    Forced : No
    Forced : No
    bsid : 8
    dialnorm : -31
    dialnorm : -31 dB
    compr : -0.28
    compr : -0.28 dB
    dynrng : -0.86
    dynrng : -0.86 dB
    acmod : 7
    lfeon : 1
    dialnorm_Average : -31
    dialnorm_Average : -31 dB
    dialnorm_Minimum : -31
    dialnorm_Minimum : -31 dB
    dialnorm_Maximum : -31
    dialnorm_Maximum : -31 dB
    dialnorm_Count : 582
    compr_Average : -1.09
    compr_Average : -1.09 dB
    compr_Minimum : -1.48
    compr_Minimum : -1.48 dB
    compr_Maximum : -0.56
    compr_Maximum : -0.56 dB
    compr_Count : 20
    dynrng_Average : -0.85
    dynrng_Average : -0.85 dB
    dynrng_Minimum : -12.90
    dynrng_Minimum : -12.90 dB
    dynrng_Maximum : 0.00
    dynrng_Maximum : 0.00 dB
    dynrng_Count : 582

    Menu
    Count : 158
    Count of stream of this kind : 1
    Kind of stream : Menu
    Kind of stream : Menu
    Stream identifier : 0
    Chapters_Pos_Begin : 94
    Chapters_Pos_End : 158
    00:00:00.000 : en:Blues Series Open
    00:01:11.196 : en:Open: That's How Deep The Blues Go
    00:01:27.212 : en:Ed & Lonnie Young: "Oree"
    00:02:25.019 : en:Ballad Hunters: Discovering Lead Belly
    00:02:44.831 : en:Feel Like Going Home: Corey Harris' Journey
    00:03:11.524 : en:Corey Harris: "Dark Was The Night, Cold Was The Ground"
    00:03:43.056 : en:Sam Carr And The Jelly Roll Kings
    00:05:10.184 : en:Help Ease The Worried Mind: Willie King
    00:05:13.646 : en:Willie King And Corey Harris: "Pickens County Blues"
    00:05:53.394 : en:Changing Times: Lomax Meets Muddy
    00:06:57.625 : en:Son House: His Music Is In The Air
    00:09:14.095 : en:Son House: "Death Letter Blues"
    00:10:34.133 : en:Son House: "Levee Camp Moan"
    00:11:13.297 : en:That's A Lot Of Mules And Men: Taj Mahal
    00:12:36.213 : en:Charley Patton: "High Water Everywhere"
    00:14:50.264 : en:Stovall Plantation: Muddy Waters
    00:16:10.803 : en:Taj Mahal & Corey Harris: "Catfish Blues" And Muddy Waters: "Rolling Stone"
    00:17:36.638 : en:A Night at Bettie's Juke Joint
    00:19:40.304 : en:Willie King & The Liberators: "Spoonful"
    00:20:30.604 : en:Willie King & The Liberators: "Terrorized"
    00:22:27.471 : en:Johnny Shines: Hard Believer
    00:23:01.630 : en:Robert Johnson: Long Shadow And Ready Money
    00:24:17.330 : en:Keb' Mo' & Corey Harris: "Sweet Home Chicago"
    00:25:08.673 : en:Johnny Shines: "Walkin' Blues"
    00:26:45.645 : en:Keb' Mo' & Corey Harris: "Walkin' Blues"
    00:27:21.890 : en:A Different Kind of Groove
    00:28:07.602 : en:John Lee Hooker: "I'll Never Get Out Of These Blues Alive"
    00:28:58.528 : en:Ancient Origins: On A Picnic In North Mississippi
    00:30:25.949 : en:The Cane Tradition: Otha Turner
    00:32:00.376 : en:Otha Turner & Corey Harris: "Lay My Burden Down"
    00:33:17.954 : en:Otha Turner And The Rising Star Fife And Drum Band: "Shimme She Wobble"
    00:34:24.145 : en:Africa: A Heartbeat Away
    00:35:03.643 : en:Where Everything Began
    00:35:35.675 : en:Salif Keita: We're Born Inside Music
    00:36:56.839 : en:Salif Keita: Ananamin ("It's Been So Long")
    00:37:24.158 : en:Habib Koité: As Precious As Human Speech
    00:38:21.007 : en:Hunters: "Bambara Hunting Song"
    00:39:28.240 : en:Toumani Diabate: 71 Generations Of Griot
    00:40:44.066 : en:Ali Farka Toure In Niafunke: Ambition To All Of Us
    00:41:30.946 : en:Ali Farka Toure: Knowledge Within Wisdom
    00:42:47.273 : en:Still, Their Music Is African
    00:43:47.374 : en:Corey Harris & Ali Farka Toure: "Catfish Blues" Part 1
    00:46:39.922 : en:Corey Harris & Ali Farka Toure: "Catfish Blues" Part 2
    00:47:22.464 : en:Corey Harris & Ali Farka Toure: "Catfish Blues" Part 3
    00:49:28.548 : en:Otha Turner and The Rising Star Fife And Drum Band: "My Babe"
    00:51:09.316 : en:End Credits: Muddy Waters: "Feel Like Going Home"
    00:51:35.092 : en:Chapter 47
    00:52:27.853 : en:Chapter 48
    00:54:15.168 : en:Chapter 49
    00:54:45.615 : en:Chapter 50
    00:56:09.240 : en:Chapter 51
    00:57:08.633 : en:Chapter 52
    00:57:49.340 : en:Chapter 53
    00:59:44.038 : en:Chapter 54
    01:04:24.110 : en:Chapter 55
    01:07:25.791 : en:Chapter 56
    01:08:17.051 : en:Chapter 57
    01:08:51.418 : en:Chapter 58
    01:09:33.210 : en:Chapter 59
    01:09:55.858 : en:Chapter 60
    01:10:32.895 : en:Chapter 61
    01:12:00.482 : en:Chapter 62
    01:13:17.351 : en:Chapter 63
    01:15:31.860 : en:Chapter 64
    Quote Quote  
  6. Member
    Join Date
    May 2004
    Location
    Brazil
    Search Comp PM
    General
    Count : 331
    Count of stream of this kind : 1
    Kind of stream : General
    Kind of stream : General
    Stream identifier : 0
    Inform : Matroska: 1.18 GiB, 1 h 19 min
    Unique ID : 311143603900408098960316601697161393652
    Unique ID : 311143603900408098960316601697161393652 (0xEA1414106CF82EA24B2C61A6D6D735F4)
    Count of video streams : 1
    Count of audio streams : 1
    Count of menu streams : 1
    Video_Format_List : AVC
    Video_Format_WithHint_List : AVC
    Codecs Video : AVC
    Video_Language_List : English
    Audio_Format_List : AC-3
    Audio_Format_WithHint_List : AC-3
    Audio codecs : AC-3
    Audio_Language_List : English
    Complete name : H:\uTorrent\The.Blues.2003.DVDRip.x264-HANDJOB[rarbg]\The.Blues.S01E01.Feel.Like.Going.Home.DVDRip.x264-HANDJOB.mkv
    Folder name : H:\uTorrent\The.Blues.2003.DVDRip.x264-HANDJOB[rarbg]
    File name : The.Blues.S01E01.Feel.Like.Going.Home.DVDRip.x264-HANDJOB.mkv
    File name : The.Blues.S01E01.Feel.Like.Going.Home.DVDRip.x264-HANDJOB
    File extension : mkv
    Format : Matroska
    Format : Matroska
    Format/Url : https://matroska.org/downloads/windows.html
    Format/Extensions usually used : mkv mk3d mka mks
    Commercial name : Matroska
    Format version : Version 4
    File size : 1265931429
    File size : 1.18 GiB
    File size : 1 GiB
    File size : 1.2 GiB
    File size : 1.18 GiB
    File size : 1.179 GiB
    Duration : 4757795
    Duration : 1 h 19 min
    Duration : 1 h 19 min 17 s 795 ms
    Duration : 1 h 19 min
    Duration : 01:19:17.795
    Duration : 01:19:19;01
    Duration : 01:19:17.795 (01:19:19;01)
    Overall bit rate : 2128602
    Overall bit rate : 2 129 kb/s
    Frame rate : 23.976
    Frame rate : 23.976 FPS
    Frame count : 114073
    Stream size : 1010752
    Stream size : 987 KiB (0%)
    Stream size : 987 KiB
    Stream size : 987 KiB
    Stream size : 987 KiB
    Stream size : 987.1 KiB
    Stream size : 987 KiB (0%)
    Proportion of this stream : 0.00080
    IsStreamable : Yes
    Encoded date : UTC 2014-09-05 07:14:35
    File creation date : UTC 2020-09-19 21:59:27.419
    File creation date (local) : 2020-09-19 18:59:27.419
    File last modification date : UTC 2020-09-20 02:00:17.560
    File last modification date (local) : 2020-09-19 23:00:17.560
    Writing application : mkvmerge v7.1.0 ('Good Love') 64bit
    Writing application : mkvmerge v7.1.0 ('Good Love') 64bit
    Writing library : libebml v1.3.0 + libmatroska v1.4.1
    Writing library : libebml v1.3.0 + libmatroska v1.4.1

    Video
    Count : 347
    Count of stream of this kind : 1
    Kind of stream : Video
    Kind of stream : Video
    Stream identifier : 0
    StreamOrder : 0
    Inform : English, 1 679 kb/s, 720*474 (16:9), at 23.976 (24000/1001) FPS, AVC (High@L4) (CABAC / 16 Ref Frames)
    ID : 1
    ID : 1
    Unique ID : 361679948
    Format : AVC
    Format : AVC
    Format/Info : Advanced Video Codec
    Format/Url : http://developers.videolan.org/x264.html
    Commercial name : AVC
    Format profile : High@L4
    Format settings : CABAC / 16 Ref Frames
    Format settings, CABAC : Yes
    Format settings, CABAC : Yes
    Format settings, RefFrames : 16
    Format settings, RefFrames : 16 frames
    Internet media type : video/H264
    Codec ID : V_MPEG4/ISO/AVC
    Codec ID/Url : http://ffdshow-tryout.sourceforge.net/
    Duration : 4757795.000000
    Duration : 1 h 19 min
    Duration : 1 h 19 min 17 s 795 ms
    Duration : 1 h 19 min
    Duration : 01:19:17.795
    Duration : 01:19:19;01
    Duration : 01:19:17.795 (01:19:19;01)
    Bit rate : 1678902
    Bit rate : 1 679 kb/s
    Width : 720
    Width : 720 pixels
    Height : 474
    Height : 474 pixels
    Stored_Height : 480
    Sampled_Width : 720
    Sampled_Height : 474
    Pixel aspect ratio : 1.185
    Display aspect ratio : 1.800
    Display aspect ratio : 16:9
    Frame rate mode : CFR
    Frame rate mode : Constant
    Frame rate : 23.976
    Frame rate : 23.976 (24000/1001) FPS
    FrameRate_Num : 24000
    FrameRate_Den : 1001
    Frame count : 114073
    Color space : YUV
    Chroma subsampling : 4:2:0
    Chroma subsampling : 4:2:0
    Bit depth : 8
    Bit depth : 8 bits
    Scan type : Progressive
    Scan type : Progressive
    Bits/(Pixel*Frame) : 0.205
    Delay : 0
    Delay : 00:00:00.000
    Delay, origin : Container
    Delay, origin : Container
    Stream size : 998484325
    Stream size : 952 MiB (79%)
    Stream size : 952 MiB
    Stream size : 952 MiB
    Stream size : 952 MiB
    Stream size : 952.2 MiB
    Stream size : 952 MiB (79%)
    Proportion of this stream : 0.78873
    Writing library : x264 - core 130 r2273 b3065e6
    Writing library : x264 core 130 r2273 b3065e6
    Encoded_Library_Name : x264
    Encoded_Library_Version : core 130 r2273 b3065e6
    Encoding settings : cabac=1 / ref=16 / deblock=1:-3:-3 / analyse=0x3:0x133 / me=umh / subme=10 / psy=1 / psy_rd=1.00:0.00 / mixed_ref=1 / me_range=32 / chroma_me=1 / trellis=2 / 8x8dct=1 / cqm=0 / deadzone=21,11 / fast_pskip=0 / chroma_qp_offset=-2 / threads=12 / lookahead_threads=2 / sliced_threads=0 / nr=0 / decimate=1 / interlaced=0 / bluray_compat=0 / constrained_intra=0 / bframes=9 / b_pyramid=2 / b_adapt=2 / b_bias=0 / direct=3 / weightb=1 / open_gop=0 / weightp=2 / keyint=240 / keyint_min=24 / scenecut=40 / intra_refresh=0 / rc_lookahead=60 / rc=crf / mbtree=1 / crf=19.0 / qcomp=0.60 / qpmin=0 / qpmax=69 / qpstep=4 / ip_ratio=1.40 / aq=1:1.00
    Language : en
    Language : English
    Language : English
    Language : en
    Language : eng
    Language : en
    Default : Yes
    Default : Yes
    Forced : No
    Forced : No
    Color range : Limited
    colour_description_present : Yes
    Color primaries : BT.601 NTSC
    Transfer characteristics : BT.709
    Matrix coefficients : BT.601

    Audio
    Count : 307
    Count of stream of this kind : 1
    Kind of stream : Audio
    Kind of stream : Audio
    Stream identifier : 0
    StreamOrder : 1
    Inform : English, 448 kb/s, 48.0 kHz, 16 bits, 6 channels, AC-3 (Dolby Digital)
    ID : 2
    ID : 2
    Unique ID : 1484066687
    Format : AC-3
    Format : AC-3
    Format/Info : Audio Coding 3
    Format/Url : https://en.wikipedia.org/wiki/AC3
    Commercial name : Dolby Digital
    Commercial name : Dolby Digital
    Format settings, Endianness : Big
    Codec ID : A_AC3
    Duration : 4757792.000000
    Duration : 1 h 19 min
    Duration : 1 h 19 min 17 s 792 ms
    Duration : 1 h 19 min
    Duration : 01:19:17.792
    Duration : 01:19:56:05
    Duration : 01:19:17.792 (01:19:56:05)
    Bit rate mode : CBR
    Bit rate mode : Constant
    Bit rate : 448000
    Bit rate : 448 kb/s
    Channel(s) : 6
    Channel(s) : 6 channels
    Channel positions : Front: L C R, Side: L R, LFE
    Channel positions : 3/2/0.1
    Channel layout : L R C LFE Ls Rs
    Samples per frame : 1536
    Sampling rate : 48000
    Sampling rate : 48.0 kHz
    Samples count : 228374016
    Frame rate : 31.250
    Frame rate : 31.250 FPS (1536 SPF)
    Frame count : 148681
    Bit depth : 16
    Bit depth : 16 bits
    Compression mode : Lossy
    Compression mode : Lossy
    Delay : 0
    Delay : 00:00:00.000
    Delay, origin : Container
    Delay, origin : Container
    Delay relative to video : 0
    Delay relative to video : 00:00:00.000
    Stream size : 266436352
    Stream size : 254 MiB (21%)
    Stream size : 254 MiB
    Stream size : 254 MiB
    Stream size : 254 MiB
    Stream size : 254.1 MiB
    Stream size : 254 MiB (21%)
    Proportion of this stream : 0.21047
    Language : en
    Language : English
    Language : English
    Language : en
    Language : eng
    Language : en
    Service kind : CM
    Service kind : Complete Main
    Default : Yes
    Default : Yes
    Forced : No
    Forced : No
    bsid : 8
    dialnorm : -31
    dialnorm : -31 dB
    compr : -0.28
    compr : -0.28 dB
    dynrng : -0.86
    dynrng : -0.86 dB
    acmod : 7
    lfeon : 1
    dialnorm_Average : -31
    dialnorm_Average : -31 dB
    dialnorm_Minimum : -31
    dialnorm_Minimum : -31 dB
    dialnorm_Maximum : -31
    dialnorm_Maximum : -31 dB
    dialnorm_Count : 582
    compr_Average : -1.09
    compr_Average : -1.09 dB
    compr_Minimum : -1.48
    compr_Minimum : -1.48 dB
    compr_Maximum : -0.56
    compr_Maximum : -0.56 dB
    compr_Count : 20
    dynrng_Average : -0.85
    dynrng_Average : -0.85 dB
    dynrng_Minimum : -12.90
    dynrng_Minimum : -12.90 dB
    dynrng_Maximum : 0.00
    dynrng_Maximum : 0.00 dB
    dynrng_Count : 582

    Menu
    Count : 158
    Count of stream of this kind : 1
    Kind of stream : Menu
    Kind of stream : Menu
    Stream identifier : 0
    Chapters_Pos_Begin : 94
    Chapters_Pos_End : 158
    00:00:00.000 : en:Blues Series Open
    00:01:11.196 : en:Open: That's How Deep The Blues Go
    00:01:27.212 : en:Ed & Lonnie Young: "Oree"
    00:02:25.019 : en:Ballad Hunters: Discovering Lead Belly
    00:02:44.831 : en:Feel Like Going Home: Corey Harris' Journey
    00:03:11.524 : en:Corey Harris: "Dark Was The Night, Cold Was The Ground"
    00:03:43.056 : en:Sam Carr And The Jelly Roll Kings
    00:05:10.184 : en:Help Ease The Worried Mind: Willie King
    00:05:13.646 : en:Willie King And Corey Harris: "Pickens County Blues"
    00:05:53.394 : en:Changing Times: Lomax Meets Muddy
    00:06:57.625 : en:Son House: His Music Is In The Air
    00:09:14.095 : en:Son House: "Death Letter Blues"
    00:10:34.133 : en:Son House: "Levee Camp Moan"
    00:11:13.297 : en:That's A Lot Of Mules And Men: Taj Mahal
    00:12:36.213 : en:Charley Patton: "High Water Everywhere"
    00:14:50.264 : en:Stovall Plantation: Muddy Waters
    00:16:10.803 : en:Taj Mahal & Corey Harris: "Catfish Blues" And Muddy Waters: "Rolling Stone"
    00:17:36.638 : en:A Night at Bettie's Juke Joint
    00:19:40.304 : en:Willie King & The Liberators: "Spoonful"
    00:20:30.604 : en:Willie King & The Liberators: "Terrorized"
    00:22:27.471 : en:Johnny Shines: Hard Believer
    00:23:01.630 : en:Robert Johnson: Long Shadow And Ready Money
    00:24:17.330 : en:Keb' Mo' & Corey Harris: "Sweet Home Chicago"
    00:25:08.673 : en:Johnny Shines: "Walkin' Blues"
    00:26:45.645 : en:Keb' Mo' & Corey Harris: "Walkin' Blues"
    00:27:21.890 : en:A Different Kind of Groove
    00:28:07.602 : en:John Lee Hooker: "I'll Never Get Out Of These Blues Alive"
    00:28:58.528 : en:Ancient Origins: On A Picnic In North Mississippi
    00:30:25.949 : en:The Cane Tradition: Otha Turner
    00:32:00.376 : en:Otha Turner & Corey Harris: "Lay My Burden Down"
    00:33:17.954 : en:Otha Turner And The Rising Star Fife And Drum Band: "Shimme She Wobble"
    00:34:24.145 : en:Africa: A Heartbeat Away
    00:35:03.643 : en:Where Everything Began
    00:35:35.675 : en:Salif Keita: We're Born Inside Music
    00:36:56.839 : en:Salif Keita: Ananamin ("It's Been So Long")
    00:37:24.158 : en:Habib Koité: As Precious As Human Speech
    00:38:21.007 : en:Hunters: "Bambara Hunting Song"
    00:39:28.240 : en:Toumani Diabate: 71 Generations Of Griot
    00:40:44.066 : en:Ali Farka Toure In Niafunke: Ambition To All Of Us
    00:41:30.946 : en:Ali Farka Toure: Knowledge Within Wisdom
    00:42:47.273 : en:Still, Their Music Is African
    00:43:47.374 : en:Corey Harris & Ali Farka Toure: "Catfish Blues" Part 1
    00:46:39.922 : en:Corey Harris & Ali Farka Toure: "Catfish Blues" Part 2
    00:47:22.464 : en:Corey Harris & Ali Farka Toure: "Catfish Blues" Part 3
    00:49:28.548 : en:Otha Turner and The Rising Star Fife And Drum Band: "My Babe"
    00:51:09.316 : en:End Credits: Muddy Waters: "Feel Like Going Home"
    00:51:35.092 : en:Chapter 47
    00:52:27.853 : en:Chapter 48
    00:54:15.168 : en:Chapter 49
    00:54:45.615 : en:Chapter 50
    00:56:09.240 : en:Chapter 51
    00:57:08.633 : en:Chapter 52
    00:57:49.340 : en:Chapter 53
    00:59:44.038 : en:Chapter 54
    01:04:24.110 : en:Chapter 55
    01:07:25.791 : en:Chapter 56
    01:08:17.051 : en:Chapter 57
    01:08:51.418 : en:Chapter 58
    01:09:33.210 : en:Chapter 59
    01:09:55.858 : en:Chapter 60
    01:10:32.895 : en:Chapter 61
    01:12:00.482 : en:Chapter 62
    01:13:17.351 : en:Chapter 63
    01:15:31.860 : en:Chapter 64
    Quote Quote  



Similar Threads