VideoHelp Forum

Try DVDFab and copy Ultra HD Blu-rays and DVDs! Or rip iTunes movies and music! Download free trial !
+ Reply to Thread
Results 1 to 3 of 3
Thread
  1. I used to use livestreamer or rtmpdump to record weeb.tv streams (via piping it to VLC). None of them works anymore - now that weeb.tv switched to HLS.
    Code:
    livestreamer "http://weeb.tv/channel/wikingowie1" best -o output.flv
    [cli][info] Found matching plugin weeb for URL http://weeb.tv/channel/wikingowie1
    error: No streams found on this URL: http://weeb.tv/channel/wikingowie1
    also tried ffmpeg but it's giving me HTTP 403 errors retrieving chunklists even though I'm passing current tokens
    Code:
    /ffmpeg -i "http://1012.weeb.video/channel/1288166/amlst:live/playlist.m3u8?token=xyz&a=...." -acodec copy -bsf:a aac_adtstoasc -vcodec copy out.mp4
    [hls @ 0x7f8758008200] Skip ('#EXT-X-VERSION:3')
    [hls @ 0x7f8758008200] Opening 'http://1012.weeb.video/channel/1288166/amlst:live/chunklist_w1392733595_b547383.m3u8?token=xyz&a=ddd...' for reading
    [http @ 0x7f87565068c0] HTTP error 403 Forbidden
    [hls @ 0x7f8758008200] parse_playlist error Server returned 403 Forbidden (access denied)]
    Any help will be much appreciated.
    Quote Quote  
  2. ffmpeg -hide_banner -i "http://1705.weeb.video/channel/1288166/amlst:live/chunklist_w430612816_b2932215.m3u8?token=Fcak94Foj rVnJEi0&a=iPehZjOwLN%2Blz8WbsVudnE5OlDPlh%2Bmjb9a0 %2F4uoSdYbWmfaQHRY0e1CQzY%2FuPiuFvwW9zuI3FLQCvkxYq vnkg%3D%3D%3AA6GtCzFTbbDgnThWTdUbhQ%3D%3D" -c copy a.ts
    [hls @ 00000213eebdca80] Skip ('#EXT-X-VERSION:3')
    [hls @ 00000213eebdca80] Skip ('#EXT-X-DISCONTINUITY-SEQUENCE:0')
    [hls @ 00000213eebdca80] Opening 'http://1705.weeb.video/channel/1288166/amlst:live/media-u48i56lmt_w430612816_b2932215_799042600.ts?token=F cak94FojrVnJEi0&a=iPehZjOwLN%2Blz8WbsVudnE5OlDPlh% 2Bmjb9a0%2F4uoSdYbWmfaQHRY0e1CQzY%2FuPiuFvwW9zuI3F LQCvkxYqvnkg%3D%3D%3AA6GtCzFTbbDgnThWTdUbhQ%3D%3D' for reading
    [hls @ 00000213eebdca80] Opening 'http://1705.weeb.video/channel/1288166/amlst:live/media-u48i56lmt_w430612816_b2932215_799042601.ts?token=F cak94FojrVnJEi0&a=iPehZjOwLN%2Blz8WbsVudnE5OlDPlh% 2Bmjb9a0%2F4uoSdYbWmfaQHRY0e1CQzY%2FuPiuFvwW9zuI3F LQCvkxYqvnkg%3D%3D%3AA6GtCzFTbbDgnThWTdUbhQ%3D%3D' for reading
    Input #0, hls, from 'http://1705.weeb.video/channel/1288166/amlst:live/chunklist_w430612816_b2932215.m3u8?token=Fcak94Foj rVnJEi0&a=iPehZjOwLN%2Blz8WbsVudnE5OlDPlh%2Bmjb9a0 %2F4uoSdYbWmfaQHRY0e1CQzY%2FuPiuFvwW9zuI3FLQCvkxYq vnkg%3D%3D%3AA6GtCzFTbbDgnThWTdUbhQ%3D%3D':
    Duration: N/A, start: 71034.948933, bitrate: N/A
    Program 0
    Metadata:
    variant_bitrate : 0
    Stream #0:0: Data: timed_id3 (ID3 / 0x20334449)
    Metadata:
    variant_bitrate : 0
    Stream #0:1: Video: h264 (Constrained Baseline) ([27][0][0][0] / 0x001B), yuv420p, 1280x720 [SAR 1:1 DAR 16:9], 25 fps, 25 tbr, 90k tbn, 2k tbc
    Metadata:
    variant_bitrate : 0
    Stream #0:2: Audio: aac (LC) ([15][0][0][0] / 0x000F), 48000 Hz, stereo, fltp
    Metadata:
    variant_bitrate : 0
    Output #0, mpegts, to 'a.ts':
    Metadata:
    encoder : Lavf58.47.100
    Stream #0:0: Video: h264 (Constrained Baseline) ([27][0][0][0] / 0x001B), yuv420p, 1280x720 [SAR 1:1 DAR 16:9], q=2-31, 25 fps, 25 tbr, 90k tbn, 90k tbc
    Metadata:
    variant_bitrate : 0
    Stream #0:1: Audio: aac (LC) ([15][0][0][0] / 0x000F), 48000 Hz, stereo, fltp
    Metadata:
    variant_bitrate : 0
    Stream mapping:
    Stream #0:1 -> #0:0 (copy)
    Stream #0:2 -> #0:1 (copy)
    Press [q] to stop, [?] for help
    frame= 43 fps=0.0 q=-1.0 size= 512kB time=00:00:01.73 bitrate=2411.9kb[http @ 00000213eebe6640] Opening 'http://1705.weeb.video/channel/1288166/amlst:live/media-u48i56lmt_w430612816_b2932215_799042602.ts?token=F cak94FojrVnJEi0&a=iPehZjOwLN%2Blz8WbsVudnE5OlDPlh% 2Bmjb9a0%2F4uoSdYbWmfaQHRY0e1CQzY%2FuPiuFvwW9zuI3F LQCvkxYqvnkg%3D%3D%3AA6GtCzFTbbDgnThWTdUbhQ%3D%3D' for reading
    frame= 70 fps= 38 q=-1.0 size= 1024kB time=00:00:02.82 bitrate=2967.3kbframe= 91 fps= 37 q=-1.0 size= 1536kB time=00:00:03.65 bitrate=3438.9kb

    You need to do it quickly: the URL does not live long.
    Quote Quote  
  3. thanks a bunch. worked like a charm!
    Quote Quote  



Similar Threads