VideoHelp Forum

Try DVDFab and download streaming video, copy, convert or make Blu-rays,DVDs! Download free trial !
+ Reply to Thread
Results 1 to 2 of 2
Thread
  1. I use MeGui to encode my files, this time Video and Audio are out of sync!

    Source is a WEB-DL MKV files with E-AC-3 audio


    This is the source INFO:

    Audio
    ID : 2
    Format : E-AC-3
    Format/Info : Enhanced Audio Coding 3
    Format profile : E-AC-3+Atmos / E-AC-3
    Codec ID : A_EAC3
    Duration : 1 h 4 min
    Bit rate mode : Constant
    Bit rate : 768 kb/s
    Channel(s) : 15 objects / 6 channels
    Channel positions : 15 objects / Front: L C R, Side: L R, LFE
    Sampling rate : 48.0 kHz
    Frame rate : 187.500 FPS (256 SPF)
    Compression mode : Lossy
    Stream size : 352 MiB (14%)
    Language : English
    Service kind : Complete Main
    Default : Yes
    Forced : No

    This encoded INFO:

    Audio
    ID : 2
    Format : AAC
    Format/Info : Advanced Audio Codec
    Format profile : HE-AAC / LC
    Format settings : Explicit
    Codec ID : A_AAC-2
    Duration : 1 h 4 min
    Bit rate : 185 kb/s
    Channel(s) : 6 channels
    Channel positions : Front: L C R, Side: L R, LFE
    Sampling rate : 48.0 kHz / 24.0 kHz
    Frame rate : 23.438 FPS (1024 SPF)
    Compression mode : Lossy
    Delay relative to video : 31 ms
    Stream size : 84.6 MiB (12%)
    Language : English
    Default : Yes
    Forced : No
    Quote Quote  
  2. assuming the input if not out of sync, it's probably either:
    a. that the input is VFR and your settings do not respect that while using MeGui (in case this is possible in MeGui).
    b. that your input is broken one way or the other
    users currently on my ignore list: deadrats, Stears555
    Quote Quote  



Similar Threads