VideoHelp Forum

Try DVDFab and download streaming video, copy, convert or make Blu-rays,DVDs! Download free trial !
+ Reply to Thread
Results 1 to 3 of 3
Thread
  1. Member
    Join Date
    Jun 2011
    Location
    Netherlands
    Search Comp PM
    Hi, noob here, looking for help.

    I just received an mp4 video (made with a mobile phone, 1 minute 12 seconds length) of my husband's great-aunt who passed away yesterday.
    My in-laws would love to show the video at her memorial (coming Saturday) but unfortunately the person who recorded it started out holding the phone in a horizontal position, rotated it to vertical, and rotated it back to horizontal.
    They asked me to correct it as I'm the family-nerd.
    Is there a way to correct this so people won't have to tilt their heads one way and the other when viewing it?

    I already thought of cutting up the video in three parts, and rotating them so all parts are in the same direction (I still have to figure out how to do that).
    I know this will cause black bands on either top/bottom or left/right but anything is better than nothing.
    Do you know a better way?


    In case it's important I've added the MediaInfo information for the clip:
    General
    Complete name : D:\VID-20200524-WA0014.mp4
    Format : MPEG-4
    Format profile : Base Media / Version 2
    Codec ID : mp42 (isom/mp42)
    File size : 18.0 MiB
    Duration : 1 min 11 s
    Overall bit rate mode : Variable
    Overall bit rate : 2 107 kb/s
    Encoded date : UTC 2019-05-17 09:06:56
    Tagged date : UTC 2019-05-17 09:48:37
    Writing application : Google

    Video
    ID : 1
    Format : AVC
    Format/Info : Advanced Video Codec
    Format profile : High@L4
    Format settings : CABAC / 1 Ref Frames
    Format settings, CABAC : Yes
    Format settings, Reference frames : 1 frame
    Codec ID : avc1
    Codec ID/Info : Advanced Video Coding
    Duration : 1 min 11 s
    Bit rate : 1 978 kb/s
    Width : 1 920 pixels
    Height : 1 080 pixels
    Display aspect ratio : 16:9
    Frame rate mode : Constant
    Frame rate : 29.786 FPS
    Color space : YUV
    Chroma subsampling : 4:2:0
    Bit depth : 8 bits
    Scan type : Progressive
    Bits/(Pixel*Frame) : 0.032
    Stream size : 16.9 MiB (94%)
    Title : ISO Media file produced by Google Inc. Created on: 05/17/2019.
    Writing library : x264 core 155 r2901 7d0ff22
    Encoded date : UTC 2019-05-17 09:48:37
    Tagged date : UTC 2019-05-17 09:48:37
    Color range : Limited
    Color primaries : BT.601 NTSC
    Transfer characteristics : BT.601
    Matrix coefficients : BT.601
    Codec configuration box : avcC

    Audio
    ID : 2
    Format : AAC LC
    Format/Info : Advanced Audio Codec Low Complexity
    Codec ID : mp4a-40-2
    Duration : 1 min 11 s
    Bit rate mode : Variable
    Bit rate : 128 kb/s
    Channel(s) : 2 channels
    Channel layout : L R
    Sampling rate : 44.1 kHz
    Frame rate : 43.066 FPS (1024 SPF)
    Compression mode : Lossy
    Stream size : 1.09 MiB (6%)
    Title : ISO Media file produced by Google Inc. Created on: 05/17/2019.
    Language : English
    Encoded date : UTC 2019-05-17 09:48:37
    Tagged date : UTC 2019-05-17 09:48:37
    Quote Quote  
  2. You could try using Avidemux available from this site to cut the sections you require then use a free program called Video-Flip-and-Rotate https://www.dvdvideosoft.com/products/dvd/Free-Video-Flip-and-Rotate.htm to alter the vertical to horizontal & then use Avidemux to join the parts together.Should you encounter a problem you could try using Handbrake available from this site to re-encode the merged parts.
    Quote Quote  
  3. Member
    Join Date
    Jun 2011
    Location
    Netherlands
    Search Comp PM
    I managed to get it done using HandBrake. Thanks!
    Quote Quote  



Similar Threads