VideoHelp Forum

Try DVDFab and download streaming video, copy, convert or make Blu-rays,DVDs! Download free trial !
+ Reply to Thread
Results 1 to 6 of 6
Thread
  1. Member
    Join Date
    May 2020
    Location
    México City
    Search Comp PM
    Hi, I downloaded a video with a Stream Recorder and finally I got the .MP4 archive. So when I try to play the Video Player can recognize the video length but this never starts. Is there any posibilite to I can Convert or play this video? I Tried Quick Time Player and VLC Player.


    This is de media info:
    Code:
    General
    Complete name                            : 2020-05-15 20_49.mp4
    Format                                   : MPEG-4
    Format profile                           : Base Media / Version 2
    Codec ID                                 : mp42 (isom/iso2/avc1/mp41/mp42)
    File size                                : 380 MiB
    Duration                                 : 20 min 35 s
    Overall bit rate mode                    : Variable
    Overall bit rate                         : 2 582 kb/s
    
    Video
    ID                                       : 1
    Format                                   : AVC
    Format/Info                              : Advanced Video Codec
    Format profile                           : High@L3.1
    Format settings                          : CABAC / 5 Ref Frames
    Format settings, CABAC                   : Yes
    Format settings, ReFrames                : 5 frames
    Codec ID                                 : encv / avc1 / mp4a
    Duration                                 : 20 min 35 s
    Bit rate                                 : 2 451 kb/s
    Maximum bit rate                         : 9 478 kb/s
    Width                                    : 1 280 pixels
    Height                                   : 720 pixels
    Display aspect ratio                     : 16:9
    Frame rate mode                          : Constant
    Frame rate                               : 23.976 (24000/1001) FPS
    Color space                              : YUV
    Chroma subsampling                       : 4:2:0
    Bit depth                                : 8 bits
    Scan type                                : Progressive
    Bits/(Pixel*Frame)                       : 0.111
    Stream size                              : 361 MiB (95%)
    Encryption                               : Encrypted
    Color range                              : Limited
    Color primaries                          : BT.709
    Transfer characteristics                 : BT.709
    Matrix coefficients                      : BT.709
    
    Audio
    ID                                       : 2
    Format                                   : AAC
    Format/Info                              : Advanced Audio Codec
    Format profile                           : LC
    Codec ID                                 : enca-40-2
    Duration                                 : 20 min 34 s
    Bit rate mode                            : Variable
    Bit rate                                 : 128 kb/s
    Maximum bit rate                         : 134 kb/s
    Channel(s)                               : 2 channels
    Channel positions                        : Front: L R
    Sampling rate                            : 48.0 kHz
    Frame rate                               : 46.875 FPS (1024 SPF)
    Compression mode                         : Lossy
    Stream size                              : 18.8 MiB (5%)
    Language                                 : Spanish
    Default                                  : Yes
    Alternate group                          : 1
    Encryption                               : Encrypted
    Quick Time Player says this: (attachment)
    Image Attached Thumbnails Click image for larger version

Name:	Captura de pantalla 2020-05-16 a la(s) 00.44.17.png
Views:	21
Size:	107.1 KB
ID:	53335  

    Quote Quote  
  2. Member
    Join Date
    Mar 2008
    Location
    United States
    Search Comp PM
    The mediainfo above says the file is encrypted; you can't play until it's decrypted and for that you a need a key
    Quote Quote  
  3. Member
    Join Date
    Jan 2019
    Location
    hawai
    Search PM
    use stream recorder not on "download mode" but on "capture mode". it's the only way to capture encrypted streaming.
    and QuickTime throw it away!!
    Quote Quote  
  4. Originally Posted by lomero View Post
    and QuickTime throw it away!!
    Good call !
    Quote Quote  
  5. Member
    Join Date
    May 2020
    Location
    México City
    Search Comp PM
    Originally Posted by lomero View Post
    use stream recorder not on "download mode" but on "capture mode". it's the only way to capture encrypted streaming.
    and QuickTime throw it away!!
    Thank so much...

    So, is there any chance to play it? 'cause I've converted it and didn't work. lol

    If there isn't possibility to play it. I think to close this thread
    Quote Quote  
  6. Member
    Join Date
    Jan 2019
    Location
    hawai
    Search PM
    no. conversion it serves no purpose. the file that you downloaded is encrypted. conversion not solve your problem when play video.
    delete it.
    go back to your link and use stream recorder on "capture mode". that's all.
    Quote Quote  



Similar Threads