VideoHelp Forum

+ Reply to Thread
Page 15 of 15
FirstFirst ... 5 13 14 15
Results 421 to 440 of 440
Thread
  1. Dirty_Harry (from review)
    Hi, it's me again. Could you implement pcm_dvd encoding?
    Thanks ia
    Implemented in the newest beta (v3.0.3.02), online now.
    However, pcm_dvd is of limited use (only in the vob container).
    Test it an report success or issues here.
    Quote Quote  
  2. Member
    Join Date
    Dec 2010
    Location
    quebec
    Search Comp PM
    for the lasr few versions when i open Clever ..
    it hides in the taskbar and i can't do anything
    i'm on windows 7
    Quote Quote  
  3. Originally Posted by smartel View Post
    for the lasr few versions when i open Clever ..
    it hides in the taskbar and i can't do anything
    i'm on windows 7
    Delete this folder (it will be created again automatically):
    C:\Users\xxx\AppData\Local\clever_FFmpeg_GUI (where xxx=your user name on windows) and restart clever Ffmpeg-GUI.
    Quote Quote  
  4. October 25, 2022 update to version 3.0.4.
    Changed: Video Fade Out, Audio delay handling.
    Improved: Avisynth support, avs handling, interlaced encoding.
    Quote Quote  
  5. Thank you developer.

    I love your tool very much. You save me from command lines.
    Quote Quote  
  6. Originally Posted by FFMPEG Lover (from Reviews)
    Hi man .
    well thank u for ur project ! love it ...
    and as an idea if u can add cover art item to multiplex gonna be awesome.
    god luck
    Do you mean Cover Image for Audiofiles?
    Quote Quote  
  7. Member
    Join Date
    Aug 2018
    Location
    Brazil
    Search PM
    I don't know if it's a bug, but I tried to extract pcm audio from an m2ts file, and the program failed in this task. But the converted m2ts file had 2 minutes of playback less. See the MediaInfo from original m2ts file.
    ...
    Format : BDAV
    Format/Info : Blu-ray Video
    File size : 24.3 GiB
    Duration : 1 h 28 min
    Overall bit rate mode : Variable
    Overall bit rate : 39.3 Mb/s
    Maximum Overall bit rate : 48.0 Mb/s

    Audio #1
    ID : 4352 (0x1100)
    Menu ID : 1 (0x1)
    Format : PCM
    Format settings : Big / Signed
    Muxing mode : Blu-ray
    Codec ID : 128
    Duration : 1 h 28 min
    Bit rate mode : Constant
    Bit rate : 1 152 kb/s
    Channel(s) : 1 channel
    Channel layout : C
    Sampling rate : 48.0 kHz
    Bit depth : 24 bits
    Stream size : 731 MiB (3%)
    ...

    See the MediaInfo of the audio converted file:

    Format : FLAC
    Format/Info : Free Lossless Audio Codec
    File size : 411 MiB
    Duration : 1 h 26 min
    Overall bit rate mode : Variable
    Overall bit rate : 661 kb/s
    Writing application : Lavf59.34.101
    encoding_tool : clever Ffmpeg-GUI

    Audio
    Format : FLAC
    Format/Info : Free Lossless Audio Codec
    Duration : 1 h 26 min
    Bit rate mode : Variable
    Bit rate : 661 kb/s
    Channel(s) : 1 channel
    Channel layout : C
    Sampling rate : 48.0 kHz
    Bit depth : 24 bits
    Compression mode : Lossless
    Stream size : 411 MiB (100%)
    Writing library : Lavf59.34.101

    Any ideas on how to solve this problem?
    Quote Quote  
  8. @kdantas:

    I have done some research.

    FFmpeg has known problems with the m2ts container. The second problem is pcm big endian, also here there are numerous error messages and problems on the internet.
    The incorrect extraction of the pcm_s24be audio stream (detected in the m2ts container by ffmpeg as pcm_bluray) is really a bug in clever FFmpeg GUI, but is now fixed in the latest beta (v3.0.4.01).
    Try it here: https://files.videohelp.com/u/292773/clever_ffmpeg_gui_newest_beta.7z

    As for the different length when recoding from pcm_s24be to flac, I can't confirm that.
    I just recoded an audio stream of 2:42:12.552 and the flac audio file has exactly the same length, down to the last millisecond.

    You should avoid pcm big endian in the future and use pcm little endian instead, has exactly the same quality and is more compatible.

    NB
    Try to demux the whole source file to the single streams with Tsmuxer, so you can check the real length of the pcm audio stream
    Last edited by ProWo; 27th Oct 2022 at 10:22.
    Quote Quote  
  9. Member
    Join Date
    Aug 2018
    Location
    Brazil
    Search PM
    Hi @ProWo, could you take a look at this audio file (https://drive.google.com/file/d/1iDDLmV9HwdvYGkLqS9IjZT08CBjLFQAk/view?usp=sharing), because the converted file (flac, wav, ...) is 2 minutes shorter than the original?
    Quote Quote  
  10. The file seems to have errors.
    (e.g. the playback gets stuck at second 7 etc.).
    This causes problems during conversion and can shorten the runtime among other things.
    Quote Quote  
  11. Member
    Join Date
    Aug 2018
    Location
    Brazil
    Search PM
    Originally Posted by ProWo View Post
    The file seems to have errors.
    (e.g. the playback gets stuck at second 7 etc.).
    This causes problems during conversion and can shorten the runtime among other things.
    As you can see, the correct play time is 01:28:39




    Quote Quote  
  12. Originally Posted by kdantas View Post
    As you can see, the correct play time is 01:28:39
    What you see here is the video length.
    The correct length of the audio stream in videodrome.mka is 01:26:51.520.
    You can easily check this by extracting the audio stream, either with clever FFmpeg-GUI or with MKVCleaver.
    The time difference is due to an incorrect muxing with the image.
    The extracted audio stream is perfect, without errors.
    Quote Quote  
  13. Hello, I love your software.
    can you add drag and drop files to the clever window ?
    Quote Quote  
  14. Originally Posted by JAX75 View Post
    Hello, I love your software.
    can you add drag and drop files to the clever window ?
    Added in the newest beta (v3.0.4.02).
    Try it.
    Quote Quote  
  15. Originally Posted by ProWo View Post
    Originally Posted by JAX75 View Post
    Hello, I love your software.
    can you add drag and drop files to the clever window ?
    Added in the newest beta (v3.0.4.02).
    Try it.
    Oh Thanks Work perfect
    Quote Quote  
  16. November11, 2022 beta version 3.0.4.03.
    Improved: Drag & Drop in Select Source section, in Multiplex section and in Join section (You can drag & drop on the full frame).
    Added: ffv1 encoding (level 1 and 3), ffv1 muxing.
    Quote Quote  
  17. November21, 2022 beta version 3.0.4.04.
    Added: for the 5.1 to 2 channel downmix you can now choose between four different formulas.

    Image
    [Attachment 67709 - Click to enlarge]
    Quote Quote  
  18. November 25, 2022 release version 3.0.5.
    Added: Drag & Drop (on full frames), ffv1 encoding & muxing, subtitle conversion to vtt, extract chapters, audio downmix 5.1 to 2 ch choice between 4 formulas. Improved: chapters support, audio delay handling,.
    Changed: First Start form completely rewritten, multiple forms cosmetics.
    Fixed: mux issue with wrong audio offset of processed audio, pcm_bluray audio extraction to m2ts.
    Quote Quote  
  19. November 26, 2022
    Added: Change DAR at stream level and/or container level, for avc, hevc, mpeg2.
    https://files.videohelp.com/u/292773/clever_ffmpeg_gui_newest_beta.zip

    Image
    [Attachment 67899 - Click to enlarge]
    Quote Quote  
  20. December 1, 2022
    Added in the newest beta (3.0.5.03):Selection of deinterlacers (bwdif and yadif) with all options, delete chapters option in multiplex grid.
    Improved: Scan type recognition.

    Image
    [Attachment 67913 - Click to enlarge]
    Quote Quote  



Similar Threads