VideoHelp Forum

Try DVDFab and download streaming video, copy, convert or make Blu-rays,DVDs! Download free trial !
Closed Thread
Results 1 to 3 of 3
Thread
  1. Hello,
    I need a video from https://hdfilme.cc/
    i tried it with ffmpeg but it didn't work. Maybe i used it incorrect.
    Can somebody help me please?

  2. Member
    Join Date
    Nov 2015
    Location
    Campuchia - Sapoche
    Search Comp PM
    For example this link --> https://hdfilme.cc/knives-out-mord-ist-familiensache-13885-stream/deutsch#movie_download

    Use youtube-dl or IDM
    C:\Users\xxxxxxxxxxxxxxxxxxxxxxxxxxxxxxxxxxx>youtu be-dl --no-part --restrict-f
    ilenames --user-agent "Mozilla/5.0 (Windows NT 6.1; Win64; x64; rv:73.0) Gecko/2
    0100101 Firefox/73.0" --referer "https://hdfilme.cc/knives-out-mord-ist-familien
    sache-13885-stream/deutsch" "https://load.hdfilme.ws/playlist/c36ccde8ca8694bb3f
    6d85448740efd9/c36ccde8ca8694bb3f6d85448740efd9.m3u8"
    [generic] c36ccde8ca8694bb3f6d85448740efd9: Requesting header
    WARNING: Falling back on generic information extractor.
    [generic] c36ccde8ca8694bb3f6d85448740efd9: Downloading webpage
    [generic] c36ccde8ca8694bb3f6d85448740efd9: Downloading m3u8 information
    [download] Destination: c36ccde8ca8694bb3f6d85448740efd9-c36ccde8ca8694bb3f6d854
    48740efd9.mp4
    ffmpeg version 4.2 Copyright (c) 2000-2019 the FFmpeg developers
    built with gcc 9.1.1 (GCC) 20190807

    [hls @ 00000000004d9bc0] Opening 'https://p14d1c9b884-6b67-4bc4-8b38-7fe101682ea
    8.hdfilme.ws/hls/15deee85e21ae7d660b761d71febd11f/15deee85e21ae7d660b761d71febd1
    1f-1.png?msKey=S13' for reading
    Input #0, hls, from 'https://load.hdfilme.ws/hls/15deee85e21ae7d660b761d71febd11
    f/15deee85e21ae7d660b761d71febd11f.m3u8':
    Duration: 02:10:06.01, start: 1.400000, bitrate: 0 kb/s
    Program 0
    Metadata:
    variant_bitrate : 0
    Stream #0:0: Video: h264 (High) ([27][0][0][0] / 0x001B), yuv420p(tv, bt709)
    , 1920x1080 [SAR 1:1 DAR 16:9], 23.98 fps, 23.98 tbr, 90k tbn, 47.95 tbc
    Metadata:
    variant_bitrate : 0
    Stream #0:1: Audio: aac (LC) ([15][0][0][0] / 0x000F), 44100 Hz, stereo, flt
    p
    Metadata:
    variant_bitrate : 0
    Output #0, mp4, to 'file:c36ccde8ca8694bb3f6d85448740efd9-c36ccde8ca8694bb3f6d85
    448740efd9.mp4':
    Metadata:
    encoder : Lavf58.29.100
    Stream #0:0: Video: h264 (High) (avc1 / 0x31637661), yuv420p(tv, bt709), 192
    0x1080 [SAR 1:1 DAR 16:9], q=2-31, 23.98 fps, 23.98 tbr, 90k tbn, 90k tbc
    Metadata:
    variant_bitrate : 0
    Stream #0:1: Audio: aac (LC) (mp4a / 0x6134706D), 44100 Hz, stereo, fltp
    Metadata:
    variant_bitrate : 0
    Stream mapping:
    Stream #0:0 -> #0:0 (copy)
    Stream #0:1 -> #0:1 (copy)
    Press [q] to stop, [?] for help
    frame= 76 fps=0.0 q=-1.0 size= 256kB time=00:00:03.12 bitrate= 670.5kbits/
    frame= 88 fps= 81 q=-1.0 size= 512kB time=00:00:03.62 bitrate=1156.0kbits/
    [https @ 0000000003a90b40] Opening 'https://p14d1c9b884-6b67-4bc4-8b38-7fe101682
    ea8.hdfilme.ws/hls/15deee85e21ae7d660b761d71febd11f/15deee85e21ae7d660b761d71feb
    d11f-2.png?msKey=S13' for reading
    frame= 1415 fps= 33 q=-1.0 size= 22016kB time=00:01:01.60 bitrate=2927.7kbits/
    frame= 1436 fps= 33 q=-1.0 size= 22272kB time=00:01:02.47 bitrate=2920.2kbits/
    frame= 1458 fps= 33 q=-1.0 size= 22528kB time=00:01:03.39 bitrate=2911.0kbits/
    frame= 1475 fps= 33 q=-1.0 size= 23040kB time=00:01:04.10 bitrate=2944.3kbits/
    frame= 1495 fps= 33 q=-1.0 size= 23296kB time=00:01:04.93 bitrate=2938.7kbits/
    [https @ 0000000003e88f00] Opening 'https://p14d1c9b884-6b67-4bc4-8b38-7fe101682
    ea8.hdfilme.ws/hls/15deee85e21ae7d660b761d71febd11f/15deee85e21ae7d660b761d71feb
    d11f-17.png?msKey=S13' for reading
    frame= 1527 fps= 33 q=-1.0 size= 23808kB time=00:01:06.27 bitrate=2942.8kbits/
    frame= 1535 fps= 33 q=-1.0 size= 24064kB time=00:01:06.60 bitrate=2959.6kbits/
    frame= 1554 fps= 33 q=-1.0 size= 24320kB time=00:01:07.40 bitrate=2955.9kbits/
    frame= 1579 fps= 33 q=-1.0 size= 24576kB time=00:01:08.44 bitrate=2941.5kbits/
    [https @ 0000000003a90b40] Opening 'https://p14d1c9b884-6b67-4bc4-8b38-7fe101682
    ea8.hdfilme.ws/hls/15deee85e21ae7d660b761d71febd11f/15deee85e21ae7d660b761d71feb
    d11f-18.png?msKey=S13' for reading
    frame= 1584 fps= 33 q=-1.0 Lsize= 25061kB time=00:01:08.73 bitrate=2987.0kbits
    /s speed=1.42x
    video:23980kB audio:1053kB subtitle:0kB other streams:0kB global headers:0kB mux
    ing overhead: 0.112075%
    Still waitting download...........

    Last edited by therain; 15th Feb 2020 at 10:21.

  3. I'm a Super Moderator johns0's Avatar
    Join Date
    Jun 2002
    Location
    canada
    Search Comp PM
    Please do not ask for help on downloading videos from an illegal streaming site,this is against forum rules,this thread is closed.
    I think,therefore i am a hamster.




Similar Threads