VideoHelp Forum

Try DVDFab and download streaming video, copy, convert or make Blu-rays,DVDs! Download free trial !
+ Reply to Thread
Results 1 to 13 of 13
Thread
  1. May I ask how can found the URL from orginal mp4 from this hls.js https://cdn.jsdelivr.net/hls.js/latest/hls.min.js because I need to know how can I download MP4 that is streaming in HLS protocol
    Quote Quote  
  2. Originally Posted by farafero21 View Post
    May I ask how can found the URL from orginal mp4 from this hls.js https://cdn.jsdelivr.net/hls.js/latest/hls.min.js because I need to know how can I download MP4 that is streaming in HLS protocol
    Url of the video?
    Quote Quote  
  3. Hls.js only a library to play video.
    Quote Quote  
  4. Originally Posted by ChezBompaLawijt View Post
    Originally Posted by farafero21 View Post
    May I ask how can found the URL from orginal mp4 from this hls.js https://cdn.jsdelivr.net/hls.js/latest/hls.min.js because I need to know how can I download MP4 that is streaming in HLS protocol
    Url of the video?

    This URL OF Video https://tune.pk/video/8728083/zalimistanbulep25?source=embed&page=https3A2F2Fharajauto...&ctw=1#t=00:03
    Quote Quote  
  5. Originally Posted by kingcan007 View Post
    Hls.js only a library to play video.
    This URL OF Video https://tune.pk/video/8728083/zalimistanbulep25?source=embed&page=https3A2F2Fharajauto...&ctw=1#t=00:03
    Quote Quote  
  6. Originally Posted by farafero21 View Post
    Originally Posted by kingcan007 View Post
    Hls.js only a library to play video.
    This URL OF Video https://tune.pk/video/8728083/zalimistanbulep25?source=embed&page=https3A2F2Fharajauto...&ctw=1#t=00:03
    The link's video is using hls so you can use youtube-dl with command: youtube-dl http://cw032.tunefiles.com/files/videos/2019/12/31/1577755668cc64a_hls/720.m3u8
    Quote Quote  


  7. this's screenshot. I run this command
    Image Attached Thumbnails Click image for larger version

Name:	Screen Shot 2020-02-01 at 16.49.55.png
Views:	12
Size:	688.6 KB
ID:	51757  

    Quote Quote  
  8. Member
    Join Date
    Nov 2015
    Location
    Campuchia - Sapoche
    Search Comp PM
    Originally Posted by farafero21 View Post
    Originally Posted by kingcan007 View Post
    Hls.js only a library to play video.
    This URL OF Video https://tune.pk/video/8728083/zalimistanbulep25?source=embed&page=https3A2F2Fharajauto...&ctw=1#t=00:03
    Used youtube-dl

    C:\Users\xxxxxxxxxxxxxxxxxxxxxxxxxxxxxxxxxxxx>yout ube-dl --no-part --restrict-f
    ilenames --user-agent "Mozilla/5.0 (Windows NT 6.1; Win64; x64; rv:72.0) Gecko/2
    0100101 Firefox/72.0" --referer "https://tune.pk/video/8728083/zalimistanbulep25
    ?source=embed&page=https3A2F2Fharajauto.com2Fvid2F post.php3Furl3D256125482552253
    025632548254d2536254c25792538257a25632532257325752 5612557253825762564256d256c256
    b254c2533254d2576254d257a2541257a254d25542549253d& start=3&ctw=1" "https://cw032.
    tunefiles.com/files/videos/2019/12/31//1577755668cc64a_hls/index.m3u8?h=KIr3sxeB
    iEdSN-qtkrmGjw&ttl=1580576341"
    [generic] index: Requesting header
    [generic] index: Downloading m3u8 information
    [download] Destination: index-index.mp4
    ffmpeg version 4.2 Copyright (c) 2000-2019 the FFmpeg developers
    built with gcc 9.1.1 (GCC) 20190807
    ...............................
    [hls @ 00000000004e9e80] Skip ('#EXT-X-VERSION:3')
    [hls @ 00000000004e9e80] Opening 'https://cw032.tunefiles.com/files/videos/2019/
    12/31/1577755668cc64a_hls/7200.ts' for reading
    [hls @ 00000000004e9e80] Opening 'https://cw032.tunefiles.com/files/videos/2019/
    12/31/1577755668cc64a_hls/7201.ts' for reading
    Input #0, hls, from 'https://cw032.tunefiles.com/files/videos/2019/12/31/1577755
    668cc64a_hls/720.m3u8':
    Duration: 02:23:46.83, start: 1.460111, bitrate: 0 kb/s
    Program 0
    Metadata:
    variant_bitrate : 0
    Stream #0:0: Video: h264 (High) ([27][0][0][0] / 0x001B), yuv420p, 1280x720
    [SAR 1:1 DAR 16:9], 24 fps, 24 tbr, 90k tbn, 48 tbc
    Metadata:
    variant_bitrate : 0
    Stream #0:1: Audio: aac (LC) ([15][0][0][0] / 0x000F), 44100 Hz, stereo, flt
    p
    Metadata:
    variant_bitrate : 0
    Output #0, mp4, to 'file:index-index.mp4':
    Metadata:
    encoder : Lavf58.29.100
    Stream #0:0: Video: h264 (High) (avc1 / 0x31637661), yuv420p, 1280x720 [SAR
    1:1 DAR 16:9], q=2-31, 24 fps, 24 tbr, 90k tbn, 90k tbc
    Metadata:
    variant_bitrate : 0
    Stream #0:1: Audio: aac (LC) (mp4a / 0x6134706D), 44100 Hz, stereo, fltp
    Metadata:
    variant_bitrate : 0
    Stream mapping:
    Stream #0:0 -> #0:0 (copy)
    Stream #0:1 -> #0:1 (copy)
    Press [q] to stop, [?] for help
    frame= 39 fps=0.0 q=-1.0 size= 0kB time=00:00:01.52 bitrate= 0.3kbits/
    frame= 70 fps= 54 q=-1.0 size= 0kB time=00:00:02.81 bitrate= 0.1kbits/
    frame= 78 fps= 36 q=-1.0 size= 0kB time=00:00:03.15 bitrate= 0.1kbits/
    [https @ 0000000003c23b80] Opening 'https://cw032.tunefiles.com/files/videos/201
    9/12/31/1577755668cc64a_hls/7202.ts' for reading
    frame= 96 fps= 30 q=-1.0 size= 256kB time=00:00:03.92 bitrate= 534.5kbits/
    frame= 125 fps= 30 q=-1.0 size= 256kB time=00:00:05.10 bitrate= 410.6kbits/
    frame= 144 fps= 30 q=-1.0 size= 256kB time=00:00:05.94 bitrate= 352.9kbits/
    frame= 169 fps= 31 q=-1.0 size= 512kB time=00:00:06.94 bitrate= 604.2kbits/
    [https @ 0000000004029d00] Opening 'https://cw032.tunefiles.com/files/videos/201
    9/12/31/1577755668cc64a_hls/7203.ts' for reading
    frame= 192 fps= 29 q=-1.0 size= 512kB time=00:00:07.91 bitrate= 529.8kbits/
    frame= 229 fps= 31 q=-1.0 size= 1024kB time=00:00:09.45 bitrate= 887.7kbits/
    frame= 239 fps= 29 q=-1.0 size= 1024kB time=00:00:09.85 bitrate= 851.1kbits/
    frame= 248 fps= 28 q=-1.0 size= 1024kB time=00:00:10.24 bitrate= 819.2kbits/
    frame= 254 fps= 27 q=-1.0 size= 1024kB time=00:00:10.48 bitrate= 800.4kbits/
    frame= 265 fps= 26 q=-1.0 size= 1024kB time=00:00:10.93 bitrate= 766.8kbits/
    frame= 273 fps= 25 q=-1.0 size= 1280kB time=00:00:11.27 bitrate= 930.2kbits/
    ................
    frame= 1440 fps= 29 q=-1.0 size= 11520kB time=00:00:59.93 bitrate=1574.7kbits/
    frame= 1472 fps= 30 q=-1.0 size= 11776kB time=00:01:01.25 bitrate=1574.9kbits/
    frame= 1483 fps= 30 q=-1.0 size= 12032kB time=00:01:01.71 bitrate=1597.0kbits/
    frame= 1497 fps= 29 q=-1.0 size= 12032kB time=00:01:02.29 bitrate=1582.1kbits/
    frame= 1517 fps= 29 q=-1.0 size= 12288kB time=00:01:03.10 bitrate=1595.1kbits/
    [https @ 0000000004029d00] Opening 'https://cw032.tunefiles.com/files/videos/201
    9/12/31/1577755668cc64a_hls/72017.ts' for reading
    frame= 1536 fps= 29 q=-1.0 size= 12288kB time=00:01:03.92 bitrate=1574.7kbits/
    frame= 1576 fps= 30 q=-1.0 size= 12800kB time=00:01:05.59 bitrate=1598.5kbits/
    frame= 1602 fps= 30 q=-1.0 size= 13056kB time=00:01:06.64 bitrate=1604.8kbits/
    frame= 1612 fps= 30 q=-1.0 Lsize= 13215kB time=00:01:07.06 bitrate=1614.2kbits
    /s speed=1.25x
    Still waitting download.
    Quote Quote  
  9. Indeed youtube-dl works Video DownloadHelper extension on Firefox or Google Chrome works also but downloads are insanely slow 1 hour +- for a 2GB file

    Link For Firefox >> https://addons.mozilla.org/en-US/firefox/addon/video-downloadhelper/
    Link For Google Chrome >> https://chrome.google.com/webstore/detail/video-downloadhelper/lmjnegcaeklhafolokijcfj...iaokphfk?hl=en
    Quote Quote  
  10. Originally Posted by kingcan007 View Post
    Originally Posted by farafero21 View Post
    Originally Posted by kingcan007 View Post
    Hls.js only a library to play video.
    This URL OF Video https://tune.pk/video/8728083/zalimistanbulep25?source=embed&page=https3A2F2Fharajauto...&ctw=1#t=00:03
    The link's video is using hls so you can use youtube-dl with command: youtube-dl http://cw032.tunefiles.com/files/videos/2019/12/31/1577755668cc64a_hls/720.m3u8
    Thanks a lot but I want access to mp4 directly without HLS Streaming. I mean is there any way to stop hls streaming for this video to gain the url of mp4 instead of hls because the hls makes mp4 size is so big. when i download from his websites it's in mp4 and its about 1 GB and hls makes it reach to 2.5 GB
    Quote Quote  
  11. Originally Posted by therain View Post
    Originally Posted by farafero21 View Post
    Originally Posted by kingcan007 View Post
    Hls.js only a library to play video.
    This URL OF Video https://tune.pk/video/8728083/zalimistanbulep25?source=embed&page=https3A2F2Fharajauto...&ctw=1#t=00:03
    Used youtube-dl

    C:\Users\xxxxxxxxxxxxxxxxxxxxxxxxxxxxxxxxxxxx>yout ube-dl --no-part --restrict-f
    ilenames --user-agent "Mozilla/5.0 (Windows NT 6.1; Win64; x64; rv:72.0) Gecko/2
    0100101 Firefox/72.0" --referer "https://tune.pk/video/8728083/zalimistanbulep25
    ?source=embed&page=https3A2F2Fharajauto.com2Fvid2F post.php3Furl3D256125482552253
    025632548254d2536254c25792538257a25632532257325752 5612557253825762564256d256c256
    b254c2533254d2576254d257a2541257a254d25542549253d& start=3&ctw=1" "https://cw032.
    tunefiles.com/files/videos/2019/12/31//1577755668cc64a_hls/index.m3u8?h=KIr3sxeB
    iEdSN-qtkrmGjw&ttl=1580576341"
    [generic] index: Requesting header
    [generic] index: Downloading m3u8 information
    [download] Destination: index-index.mp4
    ffmpeg version 4.2 Copyright (c) 2000-2019 the FFmpeg developers
    built with gcc 9.1.1 (GCC) 20190807
    ...............................
    [hls @ 00000000004e9e80] Skip ('#EXT-X-VERSION:3')
    [hls @ 00000000004e9e80] Opening 'https://cw032.tunefiles.com/files/videos/2019/
    12/31/1577755668cc64a_hls/7200.ts' for reading
    [hls @ 00000000004e9e80] Opening 'https://cw032.tunefiles.com/files/videos/2019/
    12/31/1577755668cc64a_hls/7201.ts' for reading
    Input #0, hls, from 'https://cw032.tunefiles.com/files/videos/2019/12/31/1577755
    668cc64a_hls/720.m3u8':
    Duration: 02:23:46.83, start: 1.460111, bitrate: 0 kb/s
    Program 0
    Metadata:
    variant_bitrate : 0
    Stream #0:0: Video: h264 (High) ([27][0][0][0] / 0x001B), yuv420p, 1280x720
    [SAR 1:1 DAR 16:9], 24 fps, 24 tbr, 90k tbn, 48 tbc
    Metadata:
    variant_bitrate : 0
    Stream #0:1: Audio: aac (LC) ([15][0][0][0] / 0x000F), 44100 Hz, stereo, flt
    p
    Metadata:
    variant_bitrate : 0
    Output #0, mp4, to 'file:index-index.mp4':
    Metadata:
    encoder : Lavf58.29.100
    Stream #0:0: Video: h264 (High) (avc1 / 0x31637661), yuv420p, 1280x720 [SAR
    1:1 DAR 16:9], q=2-31, 24 fps, 24 tbr, 90k tbn, 90k tbc
    Metadata:
    variant_bitrate : 0
    Stream #0:1: Audio: aac (LC) (mp4a / 0x6134706D), 44100 Hz, stereo, fltp
    Metadata:
    variant_bitrate : 0
    Stream mapping:
    Stream #0:0 -> #0:0 (copy)
    Stream #0:1 -> #0:1 (copy)
    Press [q] to stop, [?] for help
    frame= 39 fps=0.0 q=-1.0 size= 0kB time=00:00:01.52 bitrate= 0.3kbits/
    frame= 70 fps= 54 q=-1.0 size= 0kB time=00:00:02.81 bitrate= 0.1kbits/
    frame= 78 fps= 36 q=-1.0 size= 0kB time=00:00:03.15 bitrate= 0.1kbits/
    [https @ 0000000003c23b80] Opening 'https://cw032.tunefiles.com/files/videos/201
    9/12/31/1577755668cc64a_hls/7202.ts' for reading
    frame= 96 fps= 30 q=-1.0 size= 256kB time=00:00:03.92 bitrate= 534.5kbits/
    frame= 125 fps= 30 q=-1.0 size= 256kB time=00:00:05.10 bitrate= 410.6kbits/
    frame= 144 fps= 30 q=-1.0 size= 256kB time=00:00:05.94 bitrate= 352.9kbits/
    frame= 169 fps= 31 q=-1.0 size= 512kB time=00:00:06.94 bitrate= 604.2kbits/
    [https @ 0000000004029d00] Opening 'https://cw032.tunefiles.com/files/videos/201
    9/12/31/1577755668cc64a_hls/7203.ts' for reading
    frame= 192 fps= 29 q=-1.0 size= 512kB time=00:00:07.91 bitrate= 529.8kbits/
    frame= 229 fps= 31 q=-1.0 size= 1024kB time=00:00:09.45 bitrate= 887.7kbits/
    frame= 239 fps= 29 q=-1.0 size= 1024kB time=00:00:09.85 bitrate= 851.1kbits/
    frame= 248 fps= 28 q=-1.0 size= 1024kB time=00:00:10.24 bitrate= 819.2kbits/
    frame= 254 fps= 27 q=-1.0 size= 1024kB time=00:00:10.48 bitrate= 800.4kbits/
    frame= 265 fps= 26 q=-1.0 size= 1024kB time=00:00:10.93 bitrate= 766.8kbits/
    frame= 273 fps= 25 q=-1.0 size= 1280kB time=00:00:11.27 bitrate= 930.2kbits/
    ................
    frame= 1440 fps= 29 q=-1.0 size= 11520kB time=00:00:59.93 bitrate=1574.7kbits/
    frame= 1472 fps= 30 q=-1.0 size= 11776kB time=00:01:01.25 bitrate=1574.9kbits/
    frame= 1483 fps= 30 q=-1.0 size= 12032kB time=00:01:01.71 bitrate=1597.0kbits/
    frame= 1497 fps= 29 q=-1.0 size= 12032kB time=00:01:02.29 bitrate=1582.1kbits/
    frame= 1517 fps= 29 q=-1.0 size= 12288kB time=00:01:03.10 bitrate=1595.1kbits/
    [https @ 0000000004029d00] Opening 'https://cw032.tunefiles.com/files/videos/201
    9/12/31/1577755668cc64a_hls/72017.ts' for reading
    frame= 1536 fps= 29 q=-1.0 size= 12288kB time=00:01:03.92 bitrate=1574.7kbits/
    frame= 1576 fps= 30 q=-1.0 size= 12800kB time=00:01:05.59 bitrate=1598.5kbits/
    frame= 1602 fps= 30 q=-1.0 size= 13056kB time=00:01:06.64 bitrate=1604.8kbits/
    frame= 1612 fps= 30 q=-1.0 Lsize= 13215kB time=00:01:07.06 bitrate=1614.2kbits
    /s speed=1.25x
    Still waitting download.

    Thanks a lot but I want access to mp4 directly without HLS Streaming. I mean is there any way to stop hls streaming for this video to gain the url of mp4 instead of hls because the hls makes mp4 size is so big. when i download from his websites it's in mp4 and its about 1 GB and hls makes it reach to 2.5 GB
    Quote Quote  
  12. Originally Posted by ChezBompaLawijt View Post
    Indeed youtube-dl works Video DownloadHelper extension on Firefox or Google Chrome works also but downloads are insanely slow 1 hour +- for a 2GB file

    Link For Firefox >> https://addons.mozilla.org/en-US/firefox/addon/video-downloadhelper/
    Link For Google Chrome >> https://chrome.google.com/webstore/detail/video-downloadhelper/lmjnegcaeklhafolokijcfj...iaokphfk?hl=en


    Thanks a lot but I want access to mp4 directly without HLS Streaming. I mean is there any way to stop hls streaming for this video to gain the url of mp4 instead of hls because the hls makes mp4 size is so big. when i download from his websites it's in mp4 and its about 1 GB and hls makes it reach to 2.5 GB
    Quote Quote  
  13. Originally Posted by farafero21 View Post
    Originally Posted by ChezBompaLawijt View Post
    Indeed youtube-dl works Video DownloadHelper extension on Firefox or Google Chrome works also but downloads are insanely slow 1 hour +- for a 2GB file

    Link For Firefox >> https://addons.mozilla.org/en-US/firefox/addon/video-downloadhelper/
    Link For Google Chrome >> https://chrome.google.com/webstore/detail/video-downloadhelper/lmjnegcaeklhafolokijcfj...iaokphfk?hl=en


    Thanks a lot but I want access to mp4 directly without HLS Streaming. I mean is there any way to stop hls streaming for this video to gain the url of mp4 instead of hls because the hls makes mp4 size is so big. when i download from his websites it's in mp4 and its about 1 GB and hls makes it reach to 2.5 GB
    Yes you can download 240P 360p or 720p with HLS Downloader for Google Chrome it's way faster then youtube-dl and video download helper so this is one of the best methods youtube-dl and video download helper takes 1 hour for the 720P version here is the link >> https://chrome.google.com/webstore/detail/hls-downloader/apomkbibleomoihlhhdbeghnfioffbej?hl=nl
    Quote Quote  



Similar Threads