VideoHelp Forum

Try DVDFab and copy Ultra HD Blu-rays and DVDs! Or rip iTunes movies and music! Download free trial !
+ Reply to Thread
Results 1 to 5 of 5
Thread
  1. Member
    Join Date
    Aug 2013
    Location
    France
    Search Comp PM
    Hi guys,

    I received the wonderful Om shanti om (2007) by Farah Khan, with Shah Rukh Khan and Deepika Padukone.
    Image
    [Attachment 51278 - Click to enlarge]

    It is really a marvel, you should watch it someday.

    As there are only English subs, I wanted to convert it into mkv file, but then it became not readable (to watch it on my TV). It still is watchable on a computer, of course.
    The only way to reintroduce French subs is to make an AVCHD structure with tsmuxer, and read it on my stand-alone Sony BDV-N590. That works, but is not satisfying (the audio file is not too good).

    I tried also my EMTEC TV-box, but the file cannot be read.
    And finally, on my Nkbox, I got a beautiful image, but the audio is not sync.

    So, what I would like to do: make a mkv file (and join ass subs, this part is easy), in order to read it with any of my devices.
    But mkvmerge creates a file that seems to be a sort of slow-motion picture.

    How can I proceed?

    Here is the Media Info:

    General
    ID : 0 (0x0)
    Complete name : G:\Formats Blu Ray\Om shanti om.m2ts
    Format : BDAV
    Format/Info : Blu-ray Video
    File size : 36.1 GiB
    Duration : 2h 49mn
    Overall bit rate : 30.6 Mbps
    Maximum Overall bit rate : 48.0 Mbps

    Video
    ID : 4113 (0x1011)
    Menu ID : 1 (0x1)
    Format : VC-1
    Format profile : Advanced@L3
    Codec ID : 234
    Duration : 2h 49mn
    Width : 1 920 pixels
    Height : 1 080 pixels
    Display aspect ratio : 16:9
    Frame rate : 23.976 fps
    Chroma subsampling : 4:2:0
    Bit depth : 8 bits
    Scan type : Progressive
    Compression mode : Lossy

    Audio #1
    ID : 4352 (0x1100)
    Menu ID : 1 (0x1)
    Format : TrueHD / AC-3
    Mode extension : CM (complete main)
    Format settings, Endianness : Big
    Muxing mode : Stream extension
    Codec ID : 131
    Duration : 2h 49mn
    Bit rate mode : Variable / Constant
    Bit rate : Unknown / 448 Kbps
    Maximum bit rate : 5 643 Kbps / 448 Kbps
    Channel(s) : 6 channels
    Channel positions : Front: L C R, Side: L R, LFE
    Sampling rate : 48.0 KHz
    Bit depth : 16 bits

    Audio #2
    ID : 4353 (0x1101)
    Menu ID : 1 (0x1)
    Format : AC-3
    Format/Info : Audio Coding 3
    Mode extension : CM (complete main)
    Format settings, Endianness : Big
    Codec ID : 129
    Duration : 2h 49mn
    Bit rate mode : Constant
    Bit rate : 448 Kbps
    Channel(s) : 6 channels
    Channel positions : Front: L C R, Side: L R, LFE
    Sampling rate : 48.0 KHz
    Bit depth : 16 bits
    Compression mode : Lossy
    Stream size : 542 MiB (1%)

    Audio #3
    ID : 4354 (0x1102)
    Menu ID : 1 (0x1)
    Format : AC-3
    Format/Info : Audio Coding 3
    Mode extension : CM (complete main)
    Format settings, Endianness : Big
    Codec ID : 129
    Duration : 2h 49mn
    Bit rate mode : Constant
    Bit rate : 192 Kbps
    Channel(s) : 2 channels
    Channel positions : Front: L R
    Sampling rate : 48.0 KHz
    Bit depth : 16 bits
    Compression mode : Lossy
    Stream size : 232 MiB (1%)

    Text
    ID : 4608 (0x1200)
    Menu ID : 1 (0x1)
    Format : PGS
    Codec ID : 144


    If you've got an idea, it would be welcome. If not, it doesn't matter: I wish you to have a very great time during the New Year's Eve!
    Quote Quote  
  2. Appears you are just doing remuxes
    VC-1 and THD could be problematic for your devices
    Quote Quote  
  3. Member
    Join Date
    Aug 2013
    Location
    France
    Search Comp PM
    Hi Iamback,
    So that would be the cause, all right.
    Now, what can I do?
    I used DVDFab to rip the BD on my PC, should I try something else?
    Quote Quote  
  4. Try VidCoder to re encode to h264 and ac3
    Quote Quote  
  5. Member
    Join Date
    Aug 2013
    Location
    France
    Search Comp PM
    All right, I'll try vidCoder this week-end, and I'll come back to tell about the result.
    Thanks, Iamback
    Quote Quote  



Similar Threads