VideoHelp Forum

Try DVDFab and download streaming video, copy, convert or make Blu-rays,DVDs! Download free trial !
+ Reply to Thread
Results 1 to 4 of 4
Thread
  1. Hi, I'm new to this. I'm just wondering what program and settings to use to deinterlace this video, convert it to 1080p and possibly increase the frame rate to 50 or 60fps?

    Format : MPEG-TS
    Format/Info : Advanced Video Codec
    File size : 18.6 GiB
    Duration : 2h 19mn
    Overall bit rate : 19.2 Mbps

    Video
    ID : 4113 (0x1011)
    Menu ID : 1 (0x1)
    Format : AVC
    Format/Info : Advanced Video Codec
    Format profile : High@L4.1
    Format settings, CABAC : Yes
    Format settings, ReFrames : 2 frames
    Format settings, GOP : M=1, N=15
    Codec ID : 27
    Duration : 2h 6mn
    Bit rate : 17.6 Mbps
    Width : 1 920 pixels
    Height : 1 080 pixels
    Display aspect ratio : 16:9
    Frame rate : 29.970 fps
    Color space : YUV
    Chroma subsampling : 4:2:0
    Bit depth : 8 bits
    Scan type : MBAFF
    Bits/(Pixel*Frame) : 0.283
    Stream size : 15.5 GiB (83%)

    Audio
    ID : 4352 (0x1100)
    Menu ID : 1 (0x1)
    Format : AC-3
    Format/Info : Audio Coding 3
    Mode extension : CM (complete main)
    Codec ID : 129
    Duration : 2h 6mn
    Bit rate mode : Constant
    Bit rate : 640 Kbps
    Channel(s) : 6 channels
    Channel positions : Front: L C R, Side: L R, LFE
    Sampling rate : 48.0 KHz
    Bit depth : 16 bits
    Compression mode : Lossy
    Stream size : 578 MiB (3%)
    Language : English
    Quote Quote  
  2. My first thought was why would you want to do this?
    I would suggest to either learn avisynth basics or familiarize with any of the encoder GUIs like Handbrake etc. The basic steps would then be to select a bobber for deinterlacing which would output a video at double framerate, means 59.94 fps.
    Be prepared to go through a learning curve.
    Quote Quote  
  3. I find that 1080p 50/60fps looks better.

    I've used Handbrake before but I end up with a much lower bitrate. The file size ends up being around 50% smaller.
    Quote Quote  
  4. In the 'Video' Tab of Handbrake you can set the "Quality" RF value or the bitrate. A lower RF value means a higher bitrate.
    Quote Quote  



Similar Threads