VideoHelp Forum

Try DVDFab and download streaming video, copy, convert or make Blu-rays,DVDs! Download free trial !
+ Reply to Thread
Results 1 to 7 of 7
Thread
  1. hi guys,
    can someone help me out?
    I tried streamdetector, youtube-dl, adblock plus developer edition, livestreamer and various tutorials that show the use of those softwares, I think I found the m3u8 link but I just can't download the video.

    https://celebrity.nine.com.au/movies/bruce-springsteen-interview-western-stars-new-alb...lwwbVeE2LKA48Y

    Any help appreciated!
    Quote Quote  
  2. Member
    Join Date
    Nov 2015
    Location
    Campuchia - Sapoche
    Search Comp PM
    It's here (video download helper for chrome or firefox)

    Quote Quote  
  3. @therain thanks, but when I click download it stops at 95 percent and gives me the error message:
    MP2T - No data received
    Error: MP2T - No data received
    at t.value (chrome-extension://lmjnegcaeklhafolokijcfjliaokphfk/background/main.js:1:219989)
    at t.value (chrome-extension://lmjnegcaeklhafolokijcfjliaokphfk/background/main.js:1:171903)
    at t.value (chrome-extension://lmjnegcaeklhafolokijcfjliaokphfk/background/main.js:1:127244)
    at chrome-extension://lmjnegcaeklhafolokijcfjliaokphfk/background/main.js:1:171006
    Quote Quote  
  4. Member
    Join Date
    Nov 2015
    Location
    Campuchia - Sapoche
    Search Comp PM
    Used youtube-dl

    Code:
    youtube-dl "m3u8 url"
    frame= 4250 fps=168 q=-1.0 size= 41472kB time=00:02:49.88 bitrate=1999.9kbits/
    [hls @ 0000000000409c00] Opening 'crypto+https://p-nine.akamaized.net/media/v1/h
    ls/v5/aes128/664969388001/3bd41a0e-a6b4-4c34-af63-f101859a90f5/dc720cbf-2391-438
    9-9231-776ceeb18c05/d3e708c7-fbd0-48ef-8507-a748c6aa1451/5x/segment18.ts?akamai_
    token=exp=1575457335~acl=/media/v1/hls/v5/aes128/664969388001/3bd41a0e-a6b4-4c34
    -af63-f101859a90f5/dc720cbf-2391-4389-9231-776ceeb18c05/d3e708c7-fbd0-48ef-8507-
    a748c6aa1451/*~hmac=7ee42e601124d902bf68e9a484766e08594623a01f0 c3ca544be386226bc
    4da3' for reading
    frame= 4500 fps=172 q=-1.0 size= 43520kB time=00:02:59.88 bitrate=1982.0kbits/
    frame= 4657 fps=177 q=-1.0 Lsize= 44532kB time=00:03:06.16 bitrate=1959.6kbits
    /s speed=7.06x
    [ffmpeg] Downloaded 45600866 bytes
    [download] 100% of 43.49MiB in 00:29
    Last edited by therain; 3rd Dec 2019 at 06:35.
    Quote Quote  
  5. @ thanks again therain
    is this the correct m3u8 and what would the correct whole command line lok like? I am a noob when it comes to this

    https://manifest.prod.boltdns.net/manifest/v1/hls/v5/aes128/664969388001/d6aa0ef0-0be6...Y0Yzk1OQ%3D%3D
    Quote Quote  
  6. Member
    Join Date
    Nov 2015
    Location
    Campuchia - Sapoche
    Search Comp PM
    Code:
    youtube-dl "https://manifest.prod.boltdns.net/manifest/v1/hls/v5/aes128/664969388001/3bd41a0e-a6b4-4c34-af63-f101859a90f5/10s/master.m3u8?fastly_token=NWRlNzlhYjhfMTgwZTZjYWE0OWIxYWE3NThjOWFmZjgyNjgxYzcyZDE3YmU0MDY0MGJiMTVlZmYxMzQwM2Y2ZGU1NDJlNGFlMg%3D%3D" -o BruceSpringsteen.mp4
    Quote Quote  
  7. awesome, thanks so much for your help!!
    Quote Quote  



Similar Threads