VideoHelp Forum

Try DVDFab and download streaming video, copy, convert or make Blu-rays,DVDs! Download free trial !
Closed Thread
Results 1 to 5 of 5
Thread
  1. Member
    Join Date
    Oct 2019
    Location
    Azerbaijan
    Search Comp PM
    Hello, it's my first post on the site, I'm following the site for a long time, but it is first time i registered and posted.

    So first time i got confused, i got a 4K bdremux .mkv movie and it has 2 video in it, one is 4k another one 1080p resolution. My question is, if i remux it with 4k resolution one do i lose any quality or what is exactly?

    Thanks in advance

  2. Member
    Join Date
    Mar 2008
    Location
    United States
    Search Comp PM
    To get the details, open the file in mediainfo, put it text view, and copy and paste the info here

  3. Member
    Join Date
    Oct 2019
    Location
    Azerbaijan
    Search Comp PM
    General
    ID : 0 (0x0)
    Complete name : F:\Transformers\Bumblebee.2018.UHD.BDRemux.2160p.D V.IVA.(RUS.UKR.ENG).ExKinoRay\BDMV\STREAM\00000.m2 ts
    Format : BDAV
    Format/Info : Blu-ray Video
    File size : 52.6 GiB
    Duration : 1 h 53 min
    Overall bit rate mode : Variable
    Overall bit rate : 66.2 Mb/s
    Maximum Overall bit rate : 109 Mb/s

    Video #1
    ID : 4113 (0x1011)
    Menu ID : 1 (0x1)
    Format : HEVC
    Format/Info : High Efficiency Video Coding
    Format profile : Main 10@L5.1@High
    HDR format : SMPTE ST 2086, HDR10 compatible
    Codec ID : 36
    Duration : 1 h 53 min
    Width : 3 840 pixels
    Height : 2 160 pixels
    Display aspect ratio : 16:9
    Frame rate : 23.976 (24000/1001) FPS
    Color space : YUV
    Chroma subsampling : 4:2:0 (Type 2)
    Bit depth : 10 bits
    Color range : Limited
    Color primaries : BT.2020
    Transfer characteristics : PQ
    Matrix coefficients : BT.2020 non-constant
    Mastering display color pri : Display P3
    Mastering display luminance : min: 0.0001 cd/m2, max: 1000 cd/m2

    Video #2
    ID : 4117 (0x1015)
    Menu ID : 1 (0x1)
    Format : HEVC
    Format/Info : High Efficiency Video Coding
    Format profile : Main 10@L5.1@High
    HDR format : SMPTE ST 2086, HDR10 compatible
    Codec ID : 36
    Duration : 1 h 53 min
    Width : 1 920 pixels
    Height : 1 080 pixels
    Display aspect ratio : 16:9
    Frame rate : 23.976 (24000/1001) FPS
    Color space : YUV
    Chroma subsampling : 4:2:0 (Type 2)
    Bit depth : 10 bits
    Color range : Limited
    Color primaries : BT.2020
    Transfer characteristics : PQ
    Matrix coefficients : BT.2020 non-constant
    Mastering display color pri : Display P3
    Mastering display luminance : min: 0.0001 cd/m2, max: 1000 cd/m2

    Audio #1
    ID : 4352 (0x1100)
    Menu ID : 1 (0x1)
    Format : AC-3
    Format/Info : Audio Coding 3
    Commercial name : Dolby Digital
    Codec ID : 129
    Duration : 1 h 53 min
    Bit rate mode : Constant
    Bit rate : 640 kb/s
    Channel(s) : 6 channels
    Channel layout : L R C LFE Ls Rs
    Sampling rate : 48.0 kHz
    Frame rate : 31.250 FPS (1536 SPF)
    Compression mode : Lossy
    Stream size : 521 MiB (1%)
    Service kind : Complete Main

    Audio #2
    ID : 4353 (0x1101)
    Menu ID : 1 (0x1)
    Format : AC-3
    Format/Info : Audio Coding 3
    Commercial name : Dolby Digital
    Codec ID : 129
    Duration : 1 h 53 min
    Bit rate mode : Constant
    Bit rate : 192 kb/s
    Channel(s) : 2 channels
    Channel layout : L R
    Sampling rate : 48.0 kHz
    Frame rate : 31.250 FPS (1536 SPF)
    Compression mode : Lossy
    Stream size : 156 MiB (0%)
    Service kind : Complete Main

    Audio #3
    ID : 4354 (0x1102)
    Menu ID : 1 (0x1)
    Format : AC-3 MLP FBA 16-ch
    Format/Info : Audio Coding 3 + Meridian Lossless Packing FBA with 16-channel presentation
    Commercial name : Dolby TrueHD with Dolby Atmos
    Muxing mode : Stream extension
    Codec ID : 131
    Duration : 1 h 53 min
    Bit rate mode : Variable
    Bit rate : 640 kb/s
    Maximum bit rate : 7 761 kb/s
    Channel(s) : 8 channels
    Channel layout : L R C LFE Ls Rs Lb Rb
    Sampling rate : 48.0 kHz
    Frame rate : 31.250 FPS (1536 SPF)
    Compression mode : Lossy
    Stream size : 521 MiB (1%)
    Service kind : Complete Main
    Number of dynamic objects : 11
    Bed channel count : 1 channel
    Bed channel configuration : LFE

    Audio #4
    ID : 4355 (0x1103)
    Menu ID : 1 (0x1)
    Format : AC-3
    Format/Info : Audio Coding 3
    Commercial name : Dolby Digital
    Codec ID : 129
    Duration : 1 h 53 min
    Bit rate mode : Constant
    Bit rate : 640 kb/s
    Channel(s) : 6 channels
    Channel layout : L R C LFE Ls Rs
    Sampling rate : 48.0 kHz
    Frame rate : 31.250 FPS (1536 SPF)
    Compression mode : Lossy
    Stream size : 521 MiB (1%)
    Service kind : Complete Main

    Text #1
    ID : 4768 (0x12A0)
    Menu ID : 1 (0x1)
    Format : PGS
    Codec ID : 144

    Text #2
    ID : 4769 (0x12A1)
    Menu ID : 1 (0x1)
    Format : PGS
    Codec ID : 144

    Text #3
    ID : 4770 (0x12A2)
    Menu ID : 1 (0x1)
    Format : PGS
    Codec ID : 144

    Text #4
    ID : 4771 (0x12A3)
    Menu ID : 1 (0x1)
    Format : PGS
    Codec ID : 144

  4. The 1080p stream is the Dolby Vision extra layer.

  5. I'm a Super Moderator johns0's Avatar
    Join Date
    Jun 2002
    Location
    canada
    Search Comp PM
    hero355-please do not ask for help on illegally downloaded videos,this is against forum rules,this thread is closed.
    I think,therefore i am a hamster.




Similar Threads