VideoHelp Forum

Our website is made possible by displaying online advertisements to our visitors. Consider supporting us by disable your adblocker or Try ConvertXtoDVD and convert all your movies to DVD. Free trial ! :)
+ Reply to Thread
Results 1 to 21 of 21
Thread
  1. Everything I say is false koberulz's Avatar
    Join Date
    Oct 2006
    Location
    Australia
    Search Comp PM
    I ripped it to an ISO with ImgBurn some time back. Trying to rip the ISO fails:
    Code:
    Using direct disc access mode
    Calculated BUP offset for VTS #1 does not match one in IFO header.
    Calculated BUP offset for VTS #2 does not match one in IFO header.
    Calculated BUP offset for VTS #3 does not match one in IFO header.
    Failed to open disc
    Using the disc almost works:
    Code:
    Using direct disc access mode
    Using LibreDrive mode (v05 id=067EFCA8EA7E)
    IFO file for VTS #2 is corrupt, VOB file must be scanned. This may take very long time, please be patient.
    IFO file for VTS #3 is corrupt, VOB file must be scanned. This may take very long time, please be patient.
    Open DVD manually : "1"
    Cells 2-end were skipped due to cell commands (structure protection?)
    Cells 43-end were skipped due to cell commands (structure protection?)
    Complex multiplex encountered - 7 cells and 10296 VOBUs have to be scanned. This may take some time, please be patient - it can't be avoided.
    Title #1/0/1 was added (7 cell(s), 2:44:38)
    Operation successfully completed
    Only issue is it's about five minutes short. I had another disc behaving the same way, but only when opening automatically. Opening manually got me that last five minutes and allowed me to rip the full disc.

    Why is this happening? Are there any workarounds?
    Quote Quote  
  2. Member
    Join Date
    Mar 2008
    Location
    United States
    Search Comp PM
    You ripped a commercial DVD with Imgburn or MakeMKV ?
    Imgburn does not have any capability to deal with the copy protections.
    Quote Quote  
  3. Everything I say is false koberulz's Avatar
    Join Date
    Oct 2006
    Location
    Australia
    Search Comp PM
    Which means it either isn't a commercial DVD or I circumvented copy protection some other way while using ImgBurn. Either way, it doesn't affect the issue I'm having with MakeMKV.
    Quote Quote  
  4. or your ripping workflow was wrong.. the fact there was an error.. it meant disk didnt transfer right..
    prob decryptor having protection with that disk...
    rip again with updated version of decryptor
    Quote Quote  
  5. Everything I say is false koberulz's Avatar
    Join Date
    Oct 2006
    Location
    Australia
    Search Comp PM
    I have the latest MakeMKV and it's not working now. Other discs I ripped the same way back then work fine.

    I opened it manually and specified to only open the first chapter, which is the bit that's missing. Got a bunch of L-EC UNCORRECTABLE ERROR messages. So, fun. Found another copy of the same disc, and it too will only rip chapter two onwards. But manually specifying the first chapter does enable me to rip it this time.

    So now I have an MKV file with the first chapter, and an MKV file with chapter two onwards, and MKVtoolnix. Problem solved, right?

    Well, no. Muxing them together generates a warning that:
    Code:
    The track number 0 from the file 'M:\Backups\Temp\2.mkv' can probably not be appended correctly to the track number 0 from the file 'M:\Backups\Temp\1.mkv': The codec's private data does not match (lengths: 34 and 92).
    The resulting MKV has no visible video, it's just black.

    What do I need to do to the chapter one file to make it match the rest? Seems better to screw with that one and leave the other one alone if I can, rather than re-encoding the whole shebang.

    MediaInfo:
    Chapter 1:
    Code:
    General
    Unique ID                                : 170514805071828349904815244168377579915 (0x8047F4F7B88315A9369A5330629AB98B)
    Complete name                            : M:\Backups\Temp\1.mkv
    Format                                   : Matroska
    Format version                           : Version 2
    File size                                : 146 MiB
    Duration                                 : 3 min 25 s
    Overall bit rate mode                    : Constant
    Overall bit rate                         : 5 987 kb/s
    Encoded date                             : UTC 2019-09-03 16:57:26
    Writing application                      : MakeMKV v1.14.4 win(x64-release)
    Writing library                          : libmakemkv v1.14.4 (1.3.5/1.4.7) win(x64-release)
    Original source medium                   : DVD-Video
    
    Video
    ID                                       : 1
    ID in the original source medium         : 224 (0xE0)
    Format                                   : MPEG Video
    Format version                           : Version 2
    Format profile                           : Main@Main
    Format settings, BVOP                    : Yes
    Format settings, Matrix                  : Default
    Format settings, GOP                     : M=5, N=8
    Codec ID                                 : V_MPEG2
    Codec ID/Info                            : MPEG 1 or 2 Video
    Duration                                 : 3 min 25 s
    Bit rate mode                            : Constant
    Bit rate                                 : 5 790 kb/s
    Width                                    : 720 pixels
    Height                                   : 576 pixels
    Display aspect ratio                     : 4:3
    Frame rate mode                          : Constant
    Frame rate                               : 25.000 FPS
    Standard                                 : PAL
    Color space                              : YUV
    Chroma subsampling                       : 4:2:0
    Bit depth                                : 8 bits
    Compression mode                         : Lossy
    Bits/(Pixel*Frame)                       : 0.558
    Time code of first frame                 : 00:00:00:00
    Time code source                         : Group of pictures header
    GOP, Open/Closed                         : Open
    GOP, Open/Closed of first frame          : Closed
    Stream size                              : 142 MiB (97%)
    Writing library                          : TMPGEnc 2.524.63.181
    Language                                 : English
    Default                                  : No
    Forced                                   : No
    Color primaries                          : BT.601 PAL
    Transfer characteristics                 : BT.470 System B, BT.470 System G
    Matrix coefficients                      : BT.601
    
    Audio
    ID                                       : 2
    ID in the original source medium         : 189 (0xBD)-128 (0x80)
    Format                                   : AC-3
    Format/Info                              : Audio Coding 3
    Mode extension                           : CM (complete main)
    Format settings, Endianness              : Big
    Codec ID                                 : A_AC3
    Duration                                 : 3 min 24 s
    Bit rate mode                            : Constant
    Bit rate                                 : 192 kb/s
    Channel(s)                               : 2 channels
    Channel positions                        : Front: L R
    Sampling rate                            : 48.0 kHz
    Frame rate                               : 31.250 FPS (1536 spf)
    Bit depth                                : 16 bits
    Compression mode                         : Lossy
    Delay relative to video                  : 500 ms
    Stream size                              : 4.69 MiB (3%)
    Title                                    : Dolby Digital 2.0
    Language                                 : English
    Default                                  : Yes
    Forced                                   : No
    
    Menu
    00:00:00.000                             : :Chapter 01
    Chapters 2-7:
    Code:
    General
    Unique ID                                : 72352115815251257946284507443254531009 (0x366E82B93A0F2309760156E6644C13C1)
    Complete name                            : M:\Backups\Temp\2.mkv
    Format                                   : Matroska
    Format version                           : Version 2
    File size                                : 6.90 GiB
    Duration                                 : 2 h 44 min
    Overall bit rate mode                    : Constant
    Overall bit rate                         : 5 997 kb/s
    Encoded date                             : UTC 2019-09-03 17:51:07
    Writing application                      : MakeMKV v1.14.4 win(x64-release)
    Writing library                          : libmakemkv v1.14.4 (1.3.5/1.4.7) win(x64-release)
    Original source medium                   : DVD-Video
    
    Video
    ID                                       : 1
    ID in the original source medium         : 224 (0xE0)
    Format                                   : MPEG Video
    Format version                           : Version 2
    Format profile                           : Main@Main
    Format settings, BVOP                    : Yes
    Format settings, Matrix                  : Default
    Format settings, GOP                     : M=5, N=8
    Format settings, picture structure       : Field
    Codec ID                                 : V_MPEG2
    Codec ID/Info                            : MPEG 1 or 2 Video
    Duration                                 : 2 h 44 min
    Bit rate mode                            : Constant
    Bit rate                                 : 5 800 kb/s
    Width                                    : 720 pixels
    Height                                   : 576 pixels
    Display aspect ratio                     : 4:3
    Frame rate mode                          : Constant
    Frame rate                               : 25.000 FPS
    Standard                                 : PAL
    Color space                              : YUV
    Chroma subsampling                       : 4:2:0
    Bit depth                                : 8 bits
    Scan type                                : Interlaced
    Scan order                               : Top Field First
    Compression mode                         : Lossy
    Bits/(Pixel*Frame)                       : 0.559
    Time code of first frame                 : 01:03:32:10
    Time code source                         : Group of pictures header
    GOP, Open/Closed                         : Open
    Stream size                              : 6.67 GiB (97%)
    Language                                 : English
    Default                                  : No
    Forced                                   : No
    Color primaries                          : BT.601 PAL
    Transfer characteristics                 : BT.470 System B, BT.470 System G
    Matrix coefficients                      : BT.601
    
    Audio
    ID                                       : 2
    ID in the original source medium         : 189 (0xBD)-128 (0x80)
    Format                                   : AC-3
    Format/Info                              : Audio Coding 3
    Mode extension                           : CM (complete main)
    Format settings, Endianness              : Big
    Codec ID                                 : A_AC3
    Duration                                 : 2 h 44 min
    Bit rate mode                            : Constant
    Bit rate                                 : 192 kb/s
    Channel(s)                               : 2 channels
    Channel positions                        : Front: L R
    Sampling rate                            : 48.0 kHz
    Frame rate                               : 31.250 FPS (1536 spf)
    Bit depth                                : 16 bits
    Compression mode                         : Lossy
    Delay relative to video                  : 36 ms
    Stream size                              : 226 MiB (3%)
    Title                                    : Dolby Digital 2.0
    Language                                 : English
    Default                                  : Yes
    Forced                                   : No
    
    Menu
    00:00:00.000                             : en:Chapter 01
    00:12:29.280                             : en:Chapter 02
    00:27:49.920                             : en:Chapter 03
    00:49:47.040                             : en:Chapter 04
    01:06:41.920                             : en:Chapter 05
    02:13:20.800                             : en:Chapter 06
    Quote Quote  
  6. Member
    Join Date
    Feb 2006
    Location
    United States
    Search Comp PM
    use another program such as dvdfab to copy the disc.
    the disc may have some newer copy protection scheme that MakeMKV can't handle.
    Quote Quote  
  7. Everything I say is false koberulz's Avatar
    Join Date
    Oct 2006
    Location
    Australia
    Search Comp PM
    It's twelve years old.
    Quote Quote  
  8. google movie name and disk info if people had problems with ripping it in the past..
    Quote Quote  
  9. Member netmask56's Avatar
    Join Date
    Sep 2005
    Location
    Sydney, Australia
    Search Comp PM
    Get hold of an old program DVDShrink aand first set it up not to shrink and save it to you hdd. Then run MakeMKV using "Open DVD files Manually" . See if that gets around the problem. If the DVD is 10 years old DVDShrink should be able to do it. Alternatively you can setup DVDShrink to output an ISO file. The important thing is to not allow it to shrink so file size in = file size out.
    BeyonWiz T3 PVR ~ Popcorn A-500 ~ Samsung ES8000 65" LED TV ~ Windows 7 64bit ~ Yamaha RX-A1070 ~ QnapTS851-4G
    Quote Quote  
  10. Everything I say is false koberulz's Avatar
    Join Date
    Oct 2006
    Location
    Australia
    Search Comp PM
    The DVDShrink version results in the same missing five minutes.

    I've got the five minutes ripped, and I've got the rest ripped, I'd just be happy if I could combine them TBH.
    Quote Quote  
  11. The first chapter appears to be interlaced, the rest, not. I've seen it before that the opening credits of a disc are interlaced and the rest of the movie isn't. That's probably why they aren't being combined? Is the 5 minutes you ripped viewable otherwise? Perhaps the DVD was incorrectly mastered.
    Quote Quote  
  12. Everything I say is false koberulz's Avatar
    Join Date
    Oct 2006
    Location
    Australia
    Search Comp PM
    They both appear interlaced on playback.

    It's literally just one chapter of a title. It's not a separate title or anything like that, and it's not separate in any way. It's a WWE event, the chapter point occurs just after the start of the first entrance for the opening match.
    Quote Quote  
  13. Everything I say is false koberulz's Avatar
    Join Date
    Oct 2006
    Location
    Australia
    Search Comp PM
    In any event, what do I need to do to chapter one to make it mux with the rest?
    Quote Quote  
  14. Member
    Join Date
    Mar 2008
    Location
    United States
    Search Comp PM
    Can you provide 15 seconds or so of both pieces cut from the source? You may get more suggestions
    when they've been reviewed
    Quote Quote  
  15. Member netmask56's Avatar
    Join Date
    Sep 2005
    Location
    Sydney, Australia
    Search Comp PM
    I would make a new MKV removing (untick) everything except the video for both then try appending Chapter 2 to Chapter 1. If this works then extract the sound from both original and append to each other using an Audio editor like Adobe Audition or Audacity and then add to the new video only MKV. I would create from scratch new chapter markers and not bother with the original.
    BeyonWiz T3 PVR ~ Popcorn A-500 ~ Samsung ES8000 65" LED TV ~ Windows 7 64bit ~ Yamaha RX-A1070 ~ QnapTS851-4G
    Quote Quote  
  16. Everything I say is false koberulz's Avatar
    Join Date
    Oct 2006
    Location
    Australia
    Search Comp PM
    I tried muxing only the video. It doesn't work. Audio-only appends just fine.

    How would I provide 15-second samples?
    Quote Quote  
  17. Member
    Join Date
    Mar 2008
    Location
    United States
    Search Comp PM
    Doesn't have to be exactly 15 seconds, minimum of 15. Here I'm using mkvtoolnix to create a clip of approx.
    30 seconds, using the start and end timestamps
    Image Attached Thumbnails Click image for larger version

Name:	tn.jpg
Views:	5
Size:	159.7 KB
ID:	50035  

    Quote Quote  
  18. Everything I say is false koberulz's Avatar
    Join Date
    Oct 2006
    Location
    Australia
    Search Comp PM
    The first-chapter file has no video when I do that, it's just a black screen. There are thumbnails in Windows Explorer though. And the original file itself does work. So whatever the issue is it's clearly with that file.
    Image Attached Files
    Quote Quote  
  19. Member
    Join Date
    Mar 2008
    Location
    United States
    Search Comp PM
    Originally Posted by koberulz View Post
    The first-chapter file has no video when I do that, it's just a black screen. There are thumbnails in Windows Explorer though. And the original file itself does work. So whatever the issue is it's clearly with that file.
    Then post the whole of the first chapter. Is it actually a commercial disk? Mediainfo says it was encoded by TmpgEnc 2.5
    which seems odd
    Quote Quote  
  20. Everything I say is false koberulz's Avatar
    Join Date
    Oct 2006
    Location
    Australia
    Search Comp PM
    Oddly when I play that segment in PowerDVD it works fine. Just a black screen in VLC though. I can't upload the full chapter, it keeps timing out.

    And yeah, it's a commercial disc. Silver Vision's WWE Tagged Classics release of the 1998 Royal Rumble.
    Quote Quote  
  21. Everything I say is false koberulz's Avatar
    Join Date
    Oct 2006
    Location
    Australia
    Search Comp PM
    Bump?
    Quote Quote  



Similar Threads