VideoHelp Forum

Our website is made possible by displaying online advertisements to our visitors. Consider supporting us by disable your adblocker or Try ConvertXtoDVD and convert all your movies to DVD. Free trial ! :)
+ Reply to Thread
Results 1 to 2 of 2
Thread

Threaded View

  1. Hi all, hope someone here can help with the following question.

    I have 5x Multicast addresses, 1 for each of the 5 TV Networks in Sydney AU.
    I need to take 1 of the video + 1 of the audio channels and convert to RTSP output stream.
    Needs to be RTSP so it can be connected to a CCTV software.

    VLC does it, but audio and video get out of sync after several seconds.

    Is there any tools that will make this easier?





    1 of the Multicast addresses looks like this; (ffprobe result)

    Input #0, mpegts, from 'udp://@239.255.255.7:1234':
    Duration: N/A, start: 58699.418100, bitrate: N/A
    Program 1569
    Metadata:
    service_name : 10 BOLD
    service_provider: TEN Sydney
    Stream #0:24[0x3e8], 0, 1/90000: Unknown: none ([5][0][0][0] / 0x0005)
    Stream #0:25[0x3f2], 0, 1/90000: Unknown: none ([11][0][0][0] / 0x000B)
    Stream #0:26[0x3fc], 0, 1/90000: Unknown: none ([12][0][0][0] / 0x000C)
    Stream #0:14[0x202], 50, 1/90000: Video: mpeg2video (Main) ([2][0][0][0] / 0x0002), yuv420p(tv, top first), 720x576 [SAR 64:45 DAR 16:9], 25 fps, 25 tbr, 90k tbn, 50 tbc
    Stream #0:11[0x2a0](eng), 76, 1/90000: Audio: mp2 ([3][0][0][0] / 0x0003), 48000 Hz, stereo, s16p, 192 kb/s
    Stream #0:5[0x241](eng), 100, 1/90000: Subtitle: dvb_teletext ([6][0][0][0] / 0x0006)
    Program 1573
    Metadata:
    service_name : 10
    service_provider: TEN Sydney
    Stream #0:20[0x3ea], 0, 1/90000: Unknown: none ([5][0][0][0] / 0x0005)
    Stream #0:21[0x3f4], 0, 1/90000: Unknown: none ([11][0][0][0] / 0x000B)
    Stream #0:22[0x3fe], 0, 1/90000: Unknown: none ([12][0][0][0] / 0x000C)
    Stream #0:8[0x200], 50, 1/90000: Video: mpeg2video (Main) ([2][0][0][0] / 0x0002), yuv420p(tv, top first), 720x576 [SAR 64:45 DAR 16:9], 25 fps, 25 tbr, 90k tbn, 50 tbc
    Stream #0:15[0x28a](eng), 76, 1/90000: Audio: mp2 ([4][0][0][0] / 0x0004), 48000 Hz, stereo, s16p, 256 kb/s
    Stream #0:10[0x240](eng), 99, 1/90000: Subtitle: dvb_teletext ([6][0][0][0] / 0x0006)
    Program 1574
    Metadata:
    service_name : TVSN
    service_provider: TEN Sydney
    Stream #0:13[0x206], 46, 1/90000: Video: mpeg2video (Main) ([2][0][0][0] / 0x0002), yuv420p(tv, top first), 720x576 [SAR 64:45 DAR 16:9], 25 fps, 25 tbr, 90k tbn, 50 tbc
    Stream #0:27[0x2b2](eng), 77, 1/90000: Audio: mp2 ([4][0][0][0] / 0x0004), 48000 Hz, stereo, s16p, 192 kb/s
    Stream #0:28[0x3eb], 0, 1/90000: Unknown: none ([5][0][0][0] / 0x0005)
    Stream #0:29[0x3f5], 0, 1/90000: Unknown: none ([11][0][0][0] / 0x000B)
    Stream #0:30[0x3ff], 0, 1/90000: Unknown: none ([12][0][0][0] / 0x000C)
    Program 1575
    Metadata:
    service_name : 10 BOLD
    service_provider: TEN Sydney
    Stream #0:14[0x202], 50, 1/90000: Video: mpeg2video (Main) ([2][0][0][0] / 0x0002), yuv420p(tv, top first), 720x576 [SAR 64:45 DAR 16:9], 25 fps, 25 tbr, 90k tbn, 50 tbc
    Stream #0:11[0x2a0](eng), 76, 1/90000: Audio: mp2 ([3][0][0][0] / 0x0003), 48000 Hz, stereo, s16p, 192 kb/s
    Stream #0:5[0x241](eng), 100, 1/90000: Subtitle: dvb_teletext ([6][0][0][0] / 0x0006)
    Stream #0:24[0x3e8], 0, 1/90000: Unknown: none ([5][0][0][0] / 0x0005)
    Stream #0:25[0x3f2], 0, 1/90000: Unknown: none ([11][0][0][0] / 0x000B)
    Stream #0:26[0x3fc], 0, 1/90000: Unknown: none ([12][0][0][0] / 0x000C)
    Program 1576
    Metadata:
    service_name : 10 Peach
    service_provider: TEN Sydney
    Stream #0:16[0x3e9], 0, 1/90000: Unknown: none ([5][0][0][0] / 0x0005)
    Stream #0:17[0x3f3], 0, 1/90000: Unknown: none ([11][0][0][0] / 0x000B)
    Stream #0:18[0x3fd], 0, 1/90000: Unknown: none ([12][0][0][0] / 0x000C)
    Stream #0:12[0x204], 40, 1/90000: Video: mpeg2video (Main) ([2][0][0][0] / 0x0002), yuv420p(tv, top first), 720x576 [SAR 64:45 DAR 16:9], 25 fps, 25 tbr, 90k tbn, 50 tbc
    Stream #0:19[0x2a9](eng), 76, 1/90000: Audio: mp2 ([4][0][0][0] / 0x0004), 48000 Hz, stereo, s16p, 192 kb/s
    Stream #0:7[0x242](eng), 98, 1/90000: Subtitle: dvb_teletext ([6][0][0][0] / 0x0006)
    Program 1577
    Metadata:
    service_name : SpreeTV
    service_provider: TEN Sydney
    Stream #0:0[0x208], 48, 1/90000: Video: mpeg2video (Main) ([2][0][0][0] / 0x0002), yuv420p(tv, top first), 720x576 [SAR 64:45 DAR 16:9], 25 fps, 25 tbr, 90k tbn, 50 tbc
    Stream #0:1[0x2bc](eng), 73, 1/90000: Audio: mp2 ([4][0][0][0] / 0x0004), 48000 Hz, stereo, s16p, 192 kb/s
    Stream #0:2[0x3ec], 0, 1/90000: Unknown: none ([5][0][0][0] / 0x0005)
    Stream #0:3[0x3f6], 0, 1/90000: Unknown: none ([11][0][0][0] / 0x000B)
    Stream #0:4[0x400], 0, 1/90000: Unknown: none ([12][0][0][0] / 0x000C)
    Program 1572
    Metadata:
    service_name : 10 HD
    service_provider: TEN Sydney
    Stream #0:6[0x1ff], 104, 1/90000: Video: h264 (High) ([27][0][0][0] / 0x001B), yuv420p(tv, bt709, top first), 1920x1080 [SAR 1:1 DAR 16:9], 25 fps, 50 tbr, 90k tbn, 50 tbc
    Stream #0:23[0x289](eng), 59, 1/90000: Audio: ac3 (AC-3 / 0x332D4341), 48000 Hz, 5.1(side), fltp, 448 kb/s
    Stream #0:9[0x23f](eng), 98, 1/90000: Subtitle: dvb_teletext ([6][0][0][0] / 0x0006)
    Stream #0:20[0x3ea], 0, 1/90000: Unknown: none ([5][0][0][0] / 0x0005)
    Stream #0:21[0x3f4], 0, 1/90000: Unknown: none ([11][0][0][0] / 0x000B)
    Stream #0:22[0x3fe], 0, 1/90000: Unknown: none ([12][0][0][0] / 0x000C)
    Quote Quote  
  2. Desperate, please help...
    Quote Quote  



Similar Threads