VideoHelp Forum

Our website is made possible by displaying online advertisements to our visitors. Consider supporting us by disable your adblocker or Try ConvertXtoDVD and convert all your movies to DVD. Free trial ! :)
+ Reply to Thread
Results 1 to 9 of 9
Thread
  1. Member
    Join Date
    May 2019
    Location
    United States
    Search PM
    徽标
    简体中文
    社区 提交请求 Clark Devlin Clark Devlin

    DivX 社区 DivX Converter

    Black Screen, audio working
    取消关注
    Avatar
    Clark Devlin

    5 天前 已编辑于

    Installed DIVX Converter on new PC, converted a video file, playback is black screen and audio is working fine, prior installation with older pc worked fine for many years with same video files

    General
    Unique ID : 290133207679397038656662450905883131319 (0xDA459F8D83AA6F7B2758421C8F4CBDB7)
    Complete name : C:\Users\kara\Videos\DivX Movies\Supergirl.S04E21.720p.HDTV.x264-AVS.mkv
    Format : Matroska
    Format version : Version 1
    File size : 936 MiB
    Duration : 42 min 14 s
    Overall bit rate mode : Variable
    Overall bit rate : 3 098 kb/s
    Writing application : DivXMKVMux 10.5.17.3128
    Writing library : libDivXMediaFormat 4.0.0.0578

    Video
    ID : 1
    Format : AVC
    Format/Info : Advanced Video Codec
    Format profile : High@L4
    Format settings : CABAC / 3 Ref Frames
    Format settings, CABAC : Yes
    Format settings, Reference frames : 3 frames
    Format settings, GOP : M=3, N=48
    Codec ID : V_MPEG4/ISO/AVC
    Duration : 42 min 14 s
    Bit rate mode : Variable
    Bit rate : 2 909 kb/s
    Maximum bit rate : 2 998 kb/s
    Width : 728 pixels
    Height : 544 pixels
    Display aspect ratio : 4:3
    Original display aspect ratio : 0.002
    Frame rate mode : Constant
    Frame rate : 23.976 (24000/1001) FPS
    Color space : YUV
    Chroma subsampling : 4:2:0
    Bit depth : 8 bits
    Scan type : Progressive
    Bits/(Pixel*Frame) : 0.306
    Stream size : 879 MiB (94%)
    Language : English
    Default : Yes
    Forced : No

    Audio
    ID : 2
    Format : MPEG Audio
    Format version : Version 1
    Format profile : Layer 3
    Format settings : Joint stereo / MS Stereo
    Codec ID : A_MPEG/L3
    Codec ID/Hint : MP3
    Duration : 42 min 14 s
    Bit rate mode : Constant
    Bit rate : 128 kb/s
    Channel(s) : 2 channels
    Sampling rate : 48.0 kHz
    Compression mode : Lossy
    Stream size : 38.7 MiB (4%)
    Language : un
    Default : Yes
    Forced : No
    Quote Quote  
  2. Member
    Join Date
    Feb 2006
    Location
    United States
    Search Comp PM
    new PC - did you update your computer with all available updates including your graphics card drivers ??
    Quote Quote  
  3. Member
    Join Date
    Mar 2008
    Location
    Netherlands
    Search Comp PM
    Did you install video codecs?
    h264 might not be installed by default.
    Quote Quote  
  4. Member
    Join Date
    May 2019
    Location
    United States
    Search PM
    TY for responding so quickly, 3 drivers and H264 codec were missing......... 1.Intel® Wireless-AC 9462 2.Intel® Wireless Bluetooth® 3.Intel® Rapid Storage Technology.....Still no luck, sorry
    Quote Quote  
  5. Member
    Join Date
    Mar 2008
    Location
    United States
    Search Comp PM
    Download mpc-be and see if your video plays in there
    Quote Quote  
  6. Member
    Join Date
    May 2019
    Location
    United States
    Search PM
    (ERROR MESSAGE WITH MPC-BE PLAYBACK) Can't play..... Choose something else to play. This item is in a format we don't support. 0xc00d36b4.........Still no luck, ty again
    Quote Quote  
  7. Member
    Join Date
    May 2019
    Location
    United States
    Search PM
    Latest update, again new pc, all drivers installed, uninstalled/reinstalled DIVX Converter, uninstalled/reinstalled klite codec pack, I download a video file, it will play 100% fine (Audio/Video), once i convert it using DIVX Converter, Black Screen will appear and audio working fine, 2 other pcs i have connected as we speak work fine with same file and configurations for years, new pc has a SSD drive, not sure if this has anything to do with it, ty again community
    Quote Quote  
  8. Member
    Join Date
    Mar 2008
    Location
    United States
    Search Comp PM
    Use something else to convert your videos - Perhaps Vidcoder
    Quote Quote  
  9. Member
    Join Date
    Apr 2019
    Location
    San Francisco, USA
    Search Comp PM
    Convert your mkv video from DivX codec to H264, HEVC or VP8 codec to have a try?
    Quote Quote  



Similar Threads