VideoHelp Forum

Our website is made possible by displaying online advertisements to our visitors. Consider supporting us by disable your adblocker or Try ConvertXtoDVD and convert all your movies to DVD. Free trial ! :)
+ Reply to Thread
Results 1 to 9 of 9
Thread
  1. Member
    Join Date
    Jan 2006
    Location
    Argentina
    Search Comp PM
    Hi,

    can someone please tell me how to solve this error?

    ----------------------- MediaInfo Audio Source 2 -----------------------

    General
    Complete name : F:\Brother Cadfael (Fray Cadfael) S01-S04 [1994-1998]\Cadfael\Cadfael - s01e01 - One Corpse Too Many_temp\Cadfael - s01e01 - One Corpse Too Many ID1 English.mp3
    Format : MPEG Audio
    File size : 70.6 MiB
    Duration : 1 h 15 min
    Overall bit rate mode : Variable
    Overall bit rate : 131 kb/s
    Writing library : LAME3.96r
    IAS1 : English

    Audio
    Format : MPEG Audio
    Format version : Version 1
    Format profile : Layer 3
    Format settings : Joint stereo / MS Stereo
    Duration : 1 h 15 min
    Bit rate mode : Variable
    Bit rate : 128 kb/s
    Channel(s) : 2 channels
    Sampling rate : 48.0 kHz
    Frame rate : 41.667 FPS (1152 SPF)
    Compression mode : Lossy
    Stream size : 70.6 MiB (100%)
    Writing library : LAME3.96r

    -------- Find Gain 2 using ffmpeg 2019-05-12 (Wolfberry built) --------

    "D:\x64\Multimedia Tools\Converters\StaxRip 2.0.1.0\Apps\Encoders\ffmpeg\ffmpeg.exe" -i "F:\Brother Cadfael (Fray Cadfael) S01-S04 [1994-1998]\Cadfael\Cadfael - s01e01 - One Corpse Too Many_temp\Cadfael - s01e01 - One Corpse Too Many ID1 English.mp3" -sn -vn -hide_banner -af volumedetect -f null NUL

    Input #0, mp3, from 'F:\Brother Cadfael (Fray Cadfael) S01-S04 [1994-1998]\Cadfael\Cadfael - s01e01 - One Corpse Too Many_temp\Cadfael - s01e01 - One Corpse Too Many ID1 English.mp3':
    Metadata:
    IAS1 : English
    encoder : Lavf58.27.103
    Duration: 01:15:36.53, start: 0.011021, bitrate: 130 kb/s
    Stream #0:0: Audio: mp3, 48000 Hz, stereo, fltp, 130 kb/s
    Metadata:
    encoder : Lavf
    Stream mapping:
    Stream #0:0 -> #0:0 (mp3 (mp3float) -> pcm_s16le (native))
    Press [q] to stop, [?] for help
    Output #0, null, to 'NUL':
    Metadata:
    IAS1 : English
    encoder : Lavf58.27.103
    Stream #0:0: Audio: pcm_s16le, 48000 Hz, stereo, s16, 1536 kb/s
    Metadata:
    encoder : Lavc58.52.101 pcm_s16le
    video:0kB audio:850597kB subtitle:0kB other streams:0kB global headers:0kB muxing overhead: unknown
    [Parsed_volumedetect_0 @ 000001650f110ac0] n_samples: 435505630
    [Parsed_volumedetect_0 @ 000001650f110ac0] mean_volume: -24.2 dB
    [Parsed_volumedetect_0 @ 000001650f110ac0] max_volume: -0.6 dB
    [Parsed_volumedetect_0 @ 000001650f110ac0] histogram_0db: 17
    [Parsed_volumedetect_0 @ 000001650f110ac0] histogram_1db: 115
    [Parsed_volumedetect_0 @ 000001650f110ac0] histogram_2db: 611
    [Parsed_volumedetect_0 @ 000001650f110ac0] histogram_3db: 2987
    [Parsed_volumedetect_0 @ 000001650f110ac0] histogram_4db: 10078
    [Parsed_volumedetect_0 @ 000001650f110ac0] histogram_5db: 30706
    [Parsed_volumedetect_0 @ 000001650f110ac0] histogram_6db: 73590
    [Parsed_volumedetect_0 @ 000001650f110ac0] histogram_7db: 160187
    [Parsed_volumedetect_0 @ 000001650f110ac0] histogram_8db: 304241

    Start: 20:30:03
    End: 20:30:21
    Duration: 00:00:17

    --- Error Audio encoding 2 using ffmpeg 2019-05-12 (Wolfberry built) ---

    Audio encoding 2 using ffmpeg 2019-05-12 (Wolfberry built) failed with exit code: 1 (0x1)

    The exit code might be a system error code: STATUS_WAIT_1

    The exit code might be a system error code: Función incorrecta.


    ------ Audio encoding 2 using ffmpeg 2019-05-12 (Wolfberry built) ------

    "D:\x64\Multimedia Tools\Converters\StaxRip 2.0.1.0\Apps\Encoders\ffmpeg\ffmpeg.exe" -i "F:\Brother Cadfael (Fray Cadfael) S01-S04 [1994-1998]\Cadfael\Cadfael - s01e01 - One Corpse Too Many_temp\Cadfael - s01e01 - One Corpse Too Many ID1 English.mp3" -c:a libmp3lame -q:a 4 -af volume=0.6dB -y -hide_banner "F:\Brother Cadfael (Fray Cadfael) S01-S04 [1994-1998]\Cadfael\Cadfael - s01e01 - One Corpse Too Many_temp\Cadfael - s01e01 - One Corpse Too Many ID1 English_a2.mp3"

    Input #0, mp3, from 'F:\Brother Cadfael (Fray Cadfael) S01-S04 [1994-1998]\Cadfael\Cadfael - s01e01 - One Corpse Too Many_temp\Cadfael - s01e01 - One Corpse Too Many ID1 English.mp3':
    Metadata:
    IAS1 : English
    encoder : Lavf58.27.103
    Duration: 01:15:36.53, start: 0.011021, bitrate: 130 kb/s
    Stream #0:0: Audio: mp3, 48000 Hz, stereo, fltp, 130 kb/s
    Metadata:
    encoder : Lavf
    Unknown encoder 'libmp3lame'



    I wait your answer.

    Thank you. Best regards.
    Quote Quote  
  2. Member
    Join Date
    Mar 2008
    Location
    United States
    Search Comp PM
    Latest version of StaxRip has a standalone audio converter? What are you trying to convert it to?
    If you're doing something else not obvious from the log, elaborate a little.

    I'm still stuck on 1.2.2.0 as I'm not yet ready to migrate to Vaporsynth and I don't want to disturb my
    "legacy" setup
    Quote Quote  
  3. Member
    Join Date
    Jan 2006
    Location
    Argentina
    Search Comp PM
    Hi. Actually what I'm converting is an .avi file in another .mkv file But, with the audio in .mp3 format
    I can attach the complete conversion log. In this way, the entire file will be available to review and guide me towards a possible solution.
    Then, I'll publish it. Since now I do not have it available.

    As always, I leave a big greeting.

    Thank you.
    Quote Quote  
  4. Member
    Join Date
    Jan 2006
    Location
    Argentina
    Search Comp PM
    Hi. I have attached the complete .log file so you can see it and tell me if the problem is with the new application or something else.

    Thank you.

    Best regards.
    Image Attached Files
    Quote Quote  
  5. Member
    Join Date
    Mar 2008
    Location
    United States
    Search Comp PM
    Are you trying to convert the audio to mp3?
    Can you explain what you're doing - the audio is mp3 to begin with.

    In the log you can see:

    Code:
    "D:\x64\Multimedia Tools\Converters\StaxRip 2.0.1.0\Apps\Encoders\ffmpeg\ffmpeg.exe" -i "F:\Brother Cadfael (Fray Cadfael) S01-S04 [1994-1998]\Cadfael\Cadfael - s01e01 - One Corpse Too Many_temp\Cadfael - s01e01 - One Corpse Too Many ID1 English.mp3" -c:a libmp3lame -q:a 4 -af volume=0.6dB -y -hide_banner "F:\Brother Cadfael (Fray Cadfael) S01-S04 [1994-1998]\Cadfael\Cadfael - s01e01 - One Corpse Too Many_temp\Cadfael - s01e01 - One Corpse Too Many ID1 English_a2.mp3"
    
    Input #0, mp3, from 'F:\Brother Cadfael (Fray Cadfael) S01-S04 [1994-1998]\Cadfael\Cadfael - s01e01 - One Corpse Too Many_temp\Cadfael - s01e01 - One Corpse Too Many ID1 English.mp3':
    Metadata:
    IAS1            : English
    encoder         : Lavf58.27.103
    Duration: 01:15:36.53, start: 0.011021, bitrate: 130 kb/s
    Stream #0:0: Audio: mp3, 48000 Hz, stereo, fltp, 130 kb/s
    Metadata:
    encoder         : Lavf
    Unknown encoder 'libmp3lame'
    Seems as if this version of FFMpeg does not have this encoder. Also it might help to shorten the path and file name
    Quote Quote  
  6. Member
    Join Date
    Jun 2012
    Location
    Gurupi
    Search Comp PM
    But the audio is already in mp3, why convert again? Why not just do remux for mkv?
    Quote Quote  
  7. Member
    Join Date
    Mar 2008
    Location
    United States
    Search Comp PM
    Yes use the "edit" button and set it to copy/mux to keep/use the original audio
    Image Attached Thumbnails Click image for larger version

Name:	stax.jpg
Views:	11
Size:	104.9 KB
ID:	49060  

    Quote Quote  
  8. Member
    Join Date
    Jan 2006
    Location
    Argentina
    Search Comp PM
    For me too, there is not the mp3 encoder.
    Although I will try, too, cutting the path and the name of the file.
    Thank you very much for your answers and suggestions.
    Best regards.
    Quote Quote  
  9. Member
    Join Date
    Jun 2012
    Location
    Gurupi
    Search Comp PM
    Originally Posted by RHawk View Post
    For me too, there is not the mp3 encoder.
    Although I will try, too, cutting the path and the name of the file.
    Thank you very much for your answers and suggestions.
    Best regards.
    Yes, the text in your log tells you that the version of ffmpeg used was not compiled with mp3 encoder, see the changelog of the latest test version and now it has this encoder:

    2.0.1.3
    new: again new experimental icon, please give feedback if you like it,
    if it's not liked then it will be reverted to the classic icon, the problem
    with the classic icon is it looks outdated because it's not flat. The icon
    of the previous built was looking good but it was not dark mode compatible
    new: added ConvertFromDoubleWidth to AviSynth profiles, it's useful to fix the
    double width output that l-smash outputs for 10 (or more) bit sources.
    The profiles were not reset so the changes are only available
    after reseting the profiles manually
    new: in the x265 dialog it's possible to select the preferred piping tool,
    use at your own risk, not all combinations will work. In theory the included
    x265 built don't need a piping tool but I could not make it work without
    a piping tool. Options are: Automatic, None, vspipe, avs2pipemod, ffmpeg
    update: ffmpeg, unlike the built before this one supports mp3 encoding
    update: x264, x265
    update: d2v vs filter plugin
    Quote Quote  



Similar Threads