VideoHelp Forum

Try DVDFab and download streaming video, copy, convert or make Blu-rays,DVDs! Download free trial !
+ Reply to Thread
Results 1 to 9 of 9
Thread
  1. None of the regular tools work. Do I need to convert the files to a different video format?

    General
    Unique ID : 249045755905157783146318612859883762143 (0xBB5C77C71DE0396EA1BC099745A631DF)
    Complete name : D:\Downloads\TV shows\Testfile.mkv
    Format : Matroska
    Format version : Version 2
    File size : 1.09 GiB
    Duration : 25 min 55 s
    Overall bit rate : 6 023 kb/s
    Encoded date : UTC 2010-09-26 02:52:17
    Writing application : mkvmerge v2.9.8 ('C'est le bon') built on Aug 13 2009 12:49:06
    Writing library : libebml v0.7.7 + libmatroska v0.8.1

    Video
    ID : 1
    Format : AVC
    Format/Info : Advanced Video Codec
    Format profile : High@L4.1
    Format settings : CABAC / 5 Ref Frames
    Format settings, CABAC : Yes
    Format settings, RefFrames : 5 frames
    Codec ID : V_MPEG4/ISO/AVC
    Duration : 25 min 55 s
    Bit rate : 5 384 kb/s
    Width : 960 pixels
    Height : 720 pixels
    Display aspect ratio : 4:3
    Frame rate mode : Constant
    Frame rate : 23.976 (24000/1001) FPS
    Color space : YUV
    Chroma subsampling : 4:2:0
    Bit depth : 8 bits
    Scan type : Progressive
    Bits/(Pixel*Frame) : 0.325
    Stream size : 976 MiB (87%)
    Writing library : x264 core 105 r1724 b02df7b
    Encoding settings : cabac=1 / ref=5 / deblock=1:0:0 / analyse=0x3:0x133 / me=umh / subme=8 / psy=1 / psy_rd=1.00:0.00 / mixed_ref=1 / me_range=16 / chroma_me=1 / trellis=1 / 8x8dct=1 / cqm=0 / deadzone=21,11 / fast_pskip=0 / chroma_qp_offset=-2 / threads=12 / sliced_threads=0 / nr=0 / decimate=1 / interlaced=0 / constrained_intra=0 / bframes=3 / b_pyramid=2 / b_adapt=1 / b_bias=0 / direct=1 / weightb=1 / open_gop=0 / weightp=2 / keyint=240 / keyint_min=24 / scenecut=40 / intra_refresh=0 / rc_lookahead=40 / rc=2pass / mbtree=1 / bitrate=5384 / ratetol=1.0 / qcomp=0.60 / qpmin=10 / qpmax=51 / qpstep=4 / cplxblur=20.0 / qblur=0.5 / ip_ratio=1.40 / aq=1:1.00
    Language : English
    Default : No
    Forced : No

    Audio
    ID : 2
    Format : AC-3
    Format/Info : Audio Coding 3
    Commercial name : Dolby Digital
    Codec ID : A_AC3
    Duration : 25 min 55 s
    Bit rate mode : Constant
    Bit rate : 640 kb/s
    Channel(s) : 2 channels
    Channel layout : L R
    Sampling rate : 48.0 kHz
    Frame rate : 31.250 FPS (1536 SPF)
    Bit depth : 16 bits
    Compression mode : Lossy
    Stream size : 119 MiB (11%)
    Service kind : Complete Main
    Default : Yes
    Forced : No
    Quote Quote  
  2. aBigMeanie aedipuss's Avatar
    Join Date
    Oct 2005
    Location
    666th portal
    Search Comp PM
    it's a 1gb file and you want to create a blu-ray? a bd disc is 25gb. have you tried MultiAVCHD? you could put a whole bunch of the downloaded tv shows on one bd.
    --
    "a lot of people are better dead" - prisoner KSC2-303
    Quote Quote  
  3. Member
    Join Date
    Jul 2008
    Location
    Old Dominion
    Search Comp PM
    Quote Quote  
  4. That sample was of one file, but I have about 75 of them to burn. '

    I should also mention that I'd like to be able to create menues for the blu-rays.

    I've downloaded both programs and will see how I make out. Thanks!
    Last edited by robertazimmerman; 24th Mar 2019 at 14:54.
    Quote Quote  
  5. Member
    Join Date
    May 2014
    Location
    Memphis TN, US
    Search PM
    You're in for a difficult conversion. mkv isn't valid for Bluray. Large GOP's and 960x720 isn't BluRay compatible. For 4:3 BD video, you can't use 23.976fps for BluRay and 4:3 film speed for BD will have to be telecined to get 29.97fps. There's no telling what the hell AVCHDcoder will do to make those files fly for BluRay.

    Authored BluRay disc isn't just another version of YouTube. https://www.videohelp.com/hd#tech . https://www.videohelp.com/hd#filestruct
    - My sister Ann's brother
    Quote Quote  
  6. I'm a Super Moderator johns0's Avatar
    Join Date
    Jun 2002
    Location
    canada
    Search Comp PM
    Mkv can be valid as long as it is within blu-ray authoring terms,the op mkv have to be re-encoded to be bluy-ray specs but most people here don't care about blu-ray specs and just burn/copy to their media.
    I think,therefore i am a hamster.
    Quote Quote  
  7. MultiAVCHD seems to have done the trick! Although it took quite a while for MultiAVCHD to compile the appropriate files and folders, I was able to burn a blu-ray disc that played in my Samsung and Panasonic players. Thanks to everyone who offered assistance and tips!
    Quote Quote  
  8. I have a long HD music video that I want to burn to blu-ray. Am I able to insert custom chapter points into the video using MultiAVCHD?
    Quote Quote  
  9. Member
    Join Date
    May 2014
    Location
    Memphis TN, US
    Search PM
    Originally Posted by johns0 View Post
    Mkv can be valid as long as it is within blu-ray authoring terms,the op mkv have to be re-encoded to be bluy-ray specs but most people here don't care about blu-ray specs and just burn/copy to their media.
    Yep. That's because VH readers are so video low-rent they'll watch anything that moves, and if it makes sounds it's even better. Low quality is easy as hell and mediocrity always sells. That's why there will always be a VH.
    Last edited by LMotlow; 26th Apr 2019 at 00:18.
    - My sister Ann's brother
    Quote Quote  



Similar Threads