VideoHelp Forum

Our website is made possible by displaying online advertisements to our visitors. Consider supporting us by disable your adblocker or Try ConvertXtoDVD and convert all your movies to DVD. Free trial ! :)
+ Reply to Thread
Results 1 to 9 of 9
Thread
  1. Hi there,

    I was wondering if anyone could help out with this issue. PotPlayer plays the main audio stream from a file, but not the secondary one... the Films & TV app has no issues.

    I've downloaded the latest codecs and tried changing the decoder settings, to no avail, but maybe I missed something. Right now everything is back to (Recommended) settings.

    Here's the relevant media info (let me know if it's missing something):

    Code:
    General
    Format                                   : Matroska
    Format version                           : Version 4
    File size                                : 475 MiB
    Duration                                 : 24 min 12 s
    Overall bit rate                         : 2 746 kb/s
    Encoded date                             : UTC 2018-05-25 10:15:30
    Writing application                      : mkvmerge v22.0.0 ('At The End Of The World') 64-bit
    Writing library                          : libebml v1.3.5 + libmatroska v1.4.8
    Attachments                              : Aero Matics Bold.ttf / CALLI.TTF / chalkdust.ttf / CONSTANB.TTF / disco.ttf / FOTManyoSoshoStdStripped-EB2 (1).otf / FOT-MatissePro-EB-Toaru.ttf / HannaHandwriting.ttf / iskpotab.ttf / Montara-Bold.otf / Montara-Gothic.ttf / Montara-Italic_0.ttf / nrkis.ttf / Psycho Numbers.ttf / RaysHand Regular.ttf / ROCCB___.TTF
    
    Video
    ID                                       : 1
    Format                                   : HEVC
    Format/Info                              : High Efficiency Video Coding
    Format profile                           : Main 10@L4@Main
    Codec ID                                 : V_MPEGH/ISO/HEVC
    Duration                                 : 24 min 11 s
    Bit rate                                 : 2 186 kb/s
    Width                                    : 1 920 pixels
    Height                                   : 1 080 pixels
    Display aspect ratio                     : 16:9
    Frame rate mode                          : Constant
    Frame rate                               : 23.976 (24000/1001) FPS
    Color space                              : YUV
    Chroma subsampling                       : 4:2:0
    Bit depth                                : 10 bits
    Bits/(Pixel*Frame)                       : 0.044
    Stream size                              : 378 MiB (80%)
    Writing library                          : x265 2.7+340-aa9102400f24:[Windows][GCC 7.3.0][64 bit] 10bit
    Encoding settings                        : cpuid=1111039 / frame-threads=3 / numa-pools=8 / wpp / no-pmode / no-pme / no-psnr / no-ssim / log-level=2 / input-csp=1 / input-res=1920x1080 / interlace=0 / total-frames=34813 / level-idc=0 / high-tier=1 / uhd-bd=0 / ref=3 / no-allow-non-conformance / no-repeat-headers / annexb / no-aud / no-hrd / info / hash=0 / no-temporal-layers / open-gop / min-keyint=23 / keyint=250 / gop-lookahead=0 / bframes=4 / b-adapt=2 / b-pyramid / bframe-bias=0 / rc-lookahead=20 / lookahead-slices=6 / scenecut=40 / radl=0 / no-intra-refresh / ctu=64 / min-cu-size=8 / no-rect / no-amp / max-tu-size=32 / tu-inter-depth=1 / tu-intra-depth=1 / limit-tu=0 / rdoq-level=0 / dynamic-rd=0.00 / no-ssim-rd / signhide / no-tskip / nr-intra=0 / nr-inter=0 / no-constrained-intra / strong-intra-smoothing / max-merge=2 / limit-refs=3 / no-limit-modes / me=1 / subme=2 / merange=57 / temporal-mvp / weightp / no-weightb / no-analyze-src-pics / deblock=0:0 / sao / no-sao-non-deblock / rd=3 / no-early-skip / rskip / no-fast-intra / no-tskip-fast / no-cu-lossless / no-b-intra / no-splitrd-skip / rdpenalty=0 / psy-rd=2.00 / psy-rdoq=0.00 / no-rd-refine / no-lossless / cbqpoffs=0 / crqpoffs=0 / rc=crf / crf=22.0 / qcomp=0.60 / qpstep=4 / stats-write=0 / stats-read=0 / ipratio=1.40 / pbratio=1.30 / aq-mode=1 / aq-strength=1.00 / cutree / zone-count=0 / no-strict-cbr / qg-size=32 / no-rc-grain / qpmax=69 / qpmin=0 / no-const-vbv / sar=1 / overscan=0 / videoformat=5 / range=0 / colorprim=2 / transfer=2 / colormatrix=2 / chromaloc=0 / display-window=0 / max-cll=0,0 / min-luma=0 / max-luma=1023 / log2-max-poc-lsb=8 / vui-timing-info / vui-hrd-info / slices=1 / no-opt-qp-pps / no-opt-ref-list-length-pps / no-multi-pass-opt-rps / scenecut-bias=0.05 / no-opt-cu-delta-qp / no-aq-motion / no-hdr / no-hdr-opt / no-dhdr10-opt / no-idr-recovery-sei / analysis-reuse-level=5 / scale-factor=0 / refine-intra=0 / refine-inter=0 / refine-mv=0 / no-limit-sao / ctu-info=0 / no-lowpass-dct / refine-mv-type=0 / copy-pic=1 / max-ausize-factor=1.0 / no-dynamic-refine / no-single-sei
    Default                                  : Yes
    Forced                                   : No
    
    Audio #1
    ID                                       : 2
    Format                                   : AAC LC
    Format/Info                              : Advanced Audio Codec Low Complexity
    Codec ID                                 : A_AAC-2
    Duration                                 : 24 min 12 s
    Bit rate                                 : 384 kb/s
    Channel(s)                               : 6 channels
    Channel layout                           : C L R Ls Rs LFE
    Sampling rate                            : 48.0 kHz
    Frame rate                               : 46.875 FPS (1024 SPF)
    Compression mode                         : Lossy
    Delay relative to video                  : 9 ms
    Stream size                              : 65.3 MiB (14%)
    Title                                    : Surround 5.1
    Language                                 : English
    Default                                  : Yes
    Forced                                   : No
    
    Audio #2
    ID                                       : 3
    Format                                   : AAC LC
    Format/Info                              : Advanced Audio Codec Low Complexity
    Codec ID                                 : A_AAC-2
    Duration                                 : 24 min 12 s
    Bit rate                                 : 144 kb/s
    Channel(s)                               : 2 channels
    Channel layout                           : L R
    Sampling rate                            : 48.0 kHz
    Frame rate                               : 46.875 FPS (1024 SPF)
    Compression mode                         : Lossy
    Delay relative to video                  : 9 ms
    Stream size                              : 24.5 MiB (5%)
    Title                                    : Stereo
    Language                                 : Japanese
    Default                                  : No
    Forced                                   : No
    Quote Quote  
  2. did you press A to select the Audio Stream?
    Quote Quote  
  3. Yes. I can select the audio stream (pressing A or Alt+A or right-clicking, whatever) but there's just no sound.
    Quote Quote  
  4. try extracting 2nd file with gmvxtract and open in audacity.. does it play?
    Quote Quote  
  5. I can extract the file and play it with no issue with the Groove app.
    However Audacity doesn't play it as it is AAC which isn't supported in Audacity...
    Quote Quote  
  6. I tried reinstalling PotPlayer, making sure to select "install additional codec" (didn't work), then tried going into Preferences > Filter Control > Audio Decoder > Built-in Audio Codec Settings and selecting either OpenCodec options for AAC (didn't work either).
    Quote Quote  
  7. Does anyone have an idea on what might be happening and/or how to fix it?
    Quote Quote  
  8. Similar topic from the official PotPlayer forum:

    https://potplayer.daum.net/forum/viewtopic.php?f=9&t=20716

    So try this:

    It seems like disabling seamless playback fixed this problem in the original files too.
    Quote Quote  
  9. Yup, that did the trick. Weird.

    Anyway, thanks a lot!
    Quote Quote  



Similar Threads