VideoHelp Forum

Our website is made possible by displaying online advertisements to our visitors. Consider supporting us by disable your adblocker or try DVDFab and copy, convert or make Blu-rays and DVDs! :)
+ Reply to Thread
Results 1 to 4 of 4
Thread
  1. I'm trying to accurately cut massive HD video but the program keeps crashing. Can the program just not handle the resolution?
    Quote Quote  
  2. Member
    Join Date
    Aug 2006
    Location
    United States
    Search Comp PM
    Originally Posted by smike View Post
    I'm trying to accurately cut massive HD video but the program keeps crashing. Can the program just not handle the resolution?
    Smart Cutter PS/TS supports 1920 x 1080 video, but not every possible type of 1080p video. You need to tell us more. What kind of file is it? What type of audio and video does it contain? A MediaInfo report might help us answer your question. Open the file and select "Text" from the View menu, then cut and paste the results into a post in your thread.

    What produced this video? Most editing software has trouble with variable frame rate video (such as cellphone video) and with some transport streams recorded from TV broadcasts, which may have corrupt frames or missing frames or other irregularities.

    Also, Smart Cutter PS/TS like other editing software doesn't support every type of audio and video. For example, MPEG-2 or H.264/AVC video is supported but not H.265/HEVC, and AAC or DolbyDigital/AC3 audio is supported but not DTS and Dolby TrueHD.
    Ignore list: hello_hello, tried, TechLord
    Quote Quote  
  3. Code:
    Format                         : MPEG-4
    Format profile                 : Base Media / Version 2
    Codec ID                       : mp42 (isom/iso2/avc1/mp41)
    File size                      : 639 MiB
    Overall bit rate mode          : Variable
    Overall bit rate               : 5 213 kb/s
    Encoded date                   : UTC 2018-02-12 18:04:00
    Tagged date                    : UTC 2018-02-12 18:04:00
    Writing application            : HandBrake 1.0.7 2017040900
    IsTruncated                    : Yes
    
    Video
    ID                             : 1
    Format                         : AVC
    Format/Info                    : Advanced Video Codec
    Format profile                 : High@L4
    Format settings, CABAC         : Yes
    Format settings, RefFrames     : 4 frames
    Codec ID                       : avc1
    Codec ID/Info                  : Advanced Video Coding
    Bit rate                       : 4 959 kb/s
    Width                          : 1 920 pixels
    Height                         : 1 080 pixels
    Display aspect ratio           : 16:9
    Frame rate mode                : Variable
    Frame rate                     : 59.940 FPS
    Minimum frame rate             : 59.920 FPS
    Maximum frame rate             : 59.960 FPS
    Color space                    : YUV
    Chroma subsampling             : 4:2:0
    Bit depth                      : 8 bits
    Scan type                      : Progressive
    Bits/(Pixel*Frame)             : 0.040
    Stream size                    : 608 MiB (95%)
    Writing library                : x264 core 148 r2708 86b7198
    Encoding settings              : cabac=1 / ref=4 / deblock=1:0:0 / analyse=0x3:0x113 / me=umh / subme=8 / psy=1 / psy_rd=1.00:0.00 / mixed_ref=1 / me_range=16 / chroma_me=1 / trellis=1 / 8x8dct=1 / cqm=0 / deadzone=21,11 / fast_pskip=1 / chroma_qp_offset=-2 / threads=34 / lookahead_threads=5 / sliced_threads=0 / nr=0 / decimate=1 / interlaced=0 / bluray_compat=0 / constrained_intra=0 / bframes=3 / b_pyramid=2 / b_adapt=2 / b_bias=0 / direct=3 / weightb=1 / open_gop=0 / weightp=1 / keyint=600 / keyint_min=60 / scenecut=40 / intra_refresh=0 / rc_lookahead=30 / rc=crf / mbtree=1 / crf=23.0 / qcomp=0.60 / qpmin=0 / qpmax=69 / qpstep=4 / vbv_maxrate=20000 / vbv_bufsize=25000 / crf_max=0.0 / nal_hrd=none / filler=0 / ip_ratio=1.40 / aq=1:1.00
    Encoded date                   : UTC 2018-02-12 18:04:00
    Tagged date                    : UTC 2018-02-12 18:04:00
    Color range                    : Limited
    Color primaries                : BT.709
    Transfer characteristics       : BT.709
    Matrix coefficients            : BT.709
    
    Audio #1
    ID                             : 2
    Format                         : AAC
    Format/Info                    : Advanced Audio Codec
    Format profile                 : LC
    Codec ID                       : 40
    Bit rate mode                  : Variable
    Bit rate                       : 111 kb/s
    Channel(s)                     : 2 channels
    Channel positions              : Front: L R
    Sampling rate                  : 48.0 kHz
    Frame rate                     : 46.875 FPS (1024 SPF)
    Compression mode               : Lossy
    Stream size                    : 13.5 MiB (2%)
    Title                          : Stereo / Stereo
    Language                       : English
    Default                        : Yes
    Alternate group                : 1
    Encoded date                   : UTC 2018-02-12 18:04:00
    Tagged date                    : UTC 2018-02-12 18:04:00
    Fallback From                  : 3
    
    Audio #2
    ID                             : 3
    Format                         : AC-3
    Format/Info                    : Audio Coding 3
    Format settings, Endianness    : Big
    Codec ID                       : ac-3
    Bit rate mode                  : Constant
    Bit rate                       : 128 kb/s
    Channel(s)                     : 2 channels
    Channel positions              : Front: L R
    Sampling rate                  : 48.0 kHz
    Frame rate                     : 31.250 FPS (1536 SPF)
    Bit depth                      : 16 bits
    Compression mode               : Lossy
    Stream size                    : 15.7 MiB (2%)
    Title                          : Stereo / Stereo
    Language                       : English
    Service kind                   : Complete Main
    Default                        : Inherited From: 2
    Alternate group                : 1
    Encoded date                   : UTC 2018-02-12 18:04:00
    Tagged date                    : UTC 2018-02-12 18:04:00
    Fallback To                    : 2
    Quote Quote  
  4. Member
    Join Date
    Aug 2006
    Location
    United States
    Search Comp PM
    I don't use Handbrake very often, but I know that it produces variable frame rate video using its default encoder settings. (The MediaInfo report for your video says it was encoded using Hanbrake and uses variable frame rate.) Every video editor that I have heard of has problems with variable frame rate video.

    If you encoded this video yourself, you could try encoding the source again using Handbrake's constant frame rate setting to see if that makes any difference when editing with Smart Cutter PS/TS.
    Ignore list: hello_hello, tried, TechLord
    Quote Quote  



Similar Threads