VideoHelp Forum

Our website is made possible by displaying online advertisements to our visitors. Consider supporting us by disable your adblocker or Try ConvertXtoDVD and convert all your movies to DVD. Free trial ! :)
+ Reply to Thread
Results 1 to 3 of 3
Thread
  1. i have 1 MV bluray, it is not split to multiple small, so how to mux video with chapters

    Code:
    General
    ID                          : 0 (0x0)
    Complete name               : E:\BDMV\STREAM\00002.m2ts
    Format                      : BDAV
    Format/Info                 : Blu-ray Video
    File size                   : 35.9 GiB
    Duration                    : 3 h 13 min
    Overall bit rate mode       : Variable
    Overall bit rate            : 26.6 Mb/s
    Maximum Overall bit rate    : 48.0 Mb/s
    
    Video
    ID                          : 4113 (0x1011)
    Menu ID                     : 1 (0x1)
    Format                      : AVC
    Format/Info                 : Advanced Video Codec
    Format profile              : High@L4.1
    Format settings             : CABAC / 3 Ref Frames
    Format settings, CABAC      : Yes
    Format settings, ReFrames   : 3 frames
    Codec ID                    : 27
    Duration                    : 3 h 13 min
    Bit rate mode               : Variable
    Bit rate                    : 23.2 Mb/s
    Maximum bit rate            : 35.0 Mb/s
    Width                       : 1 920 pixels
    Height                      : 1 080 pixels
    Display aspect ratio        : 16:9
    Frame rate                  : 29.970 (30000/1001) FPS
    Standard                    : NTSC
    Color space                 : YUV
    Chroma subsampling          : 4:2:0
    Bit depth                   : 8 bits
    Scan type                   : Interlaced
    Scan type, store method     : Separated fields
    Scan order                  : Top Field First
    Bits/(Pixel*Frame)          : 0.373
    Stream size                 : 31.4 GiB (87%)
    Color range                 : Limited
    Color primaries             : BT.709
    Transfer characteristics    : BT.709
    Matrix coefficients         : BT.709
    
    Audio
    ID                          : 4352 (0x1100)
    Menu ID                     : 1 (0x1)
    Format                      : PCM
    Format settings             : Big / Signed
    Muxing mode                 : Blu-ray
    Codec ID                    : 128
    Duration                    : 3 h 13 min
    Bit rate mode               : Constant
    Bit rate                    : 2 304 kb/s
    Channel(s)                  : 2 channels
    Channel positions           : Front: L R
    Sampling rate               : 48.0 kHz
    Bit depth                   : 24 bits
    Stream size                 : 3.12 GiB (9%)
    Code:
    CHAPTER01=00:00:00.000
    CHAPTER01NAME=
    CHAPTER02=00:06:02.929
    CHAPTER02NAME=
    CHAPTER03=00:11:22.282
    CHAPTER03NAME=
    CHAPTER04=00:18:32.612
    CHAPTER04NAME=
    CHAPTER05=00:20:16.282
    CHAPTER05NAME=
    CHAPTER06=00:25:57.923
    CHAPTER06NAME=
    CHAPTER07=00:27:53.739
    CHAPTER07NAME=
    CHAPTER08=00:32:40.759
    CHAPTER08NAME=
    CHAPTER09=00:33:31.510
    CHAPTER09NAME=
    CHAPTER10=00:38:22.233
    CHAPTER10NAME=
    CHAPTER11=00:39:56.394
    CHAPTER11NAME=
    CHAPTER12=00:45:15.780
    CHAPTER12NAME=
    CHAPTER13=00:46:07.265
    CHAPTER13NAME=
    CHAPTER14=00:50:32.396
    CHAPTER14NAME=
    CHAPTER15=00:52:10.194
    CHAPTER15NAME=
    CHAPTER16=00:57:40.424
    CHAPTER16NAME=
    CHAPTER17=00:59:17.387
    CHAPTER17NAME=
    CHAPTER18=01:04:19.389
    CHAPTER18NAME=
    CHAPTER19=01:04:47.183
    CHAPTER19NAME=
    CHAPTER20=01:09:08.011
    CHAPTER20NAME=
    CHAPTER21=01:10:12.775
    CHAPTER21NAME=
    CHAPTER22=01:42:03.818
    CHAPTER22NAME=
    CHAPTER23=01:43:57.765
    CHAPTER23NAME=
    CHAPTER24=01:49:01.168
    CHAPTER24NAME=
    CHAPTER25=01:51:10.464
    CHAPTER25NAME=
    CHAPTER26=01:59:38.672
    CHAPTER26NAME=
    CHAPTER27=02:00:43.870
    CHAPTER27NAME=
    CHAPTER28=02:05:53.179
    CHAPTER28NAME=
    CHAPTER29=02:07:09.755
    CHAPTER29NAME=
    CHAPTER30=02:17:47.593
    CHAPTER30NAME=
    CHAPTER31=02:18:25.130
    CHAPTER31NAME=
    CHAPTER32=02:23:04.843
    CHAPTER32NAME=
    CHAPTER33=02:24:08.206
    CHAPTER33NAME=
    CHAPTER34=02:28:37.075
    CHAPTER34NAME=
    CHAPTER35=02:29:00.999
    CHAPTER35NAME=
    CHAPTER36=02:33:39.510
    CHAPTER36NAME=
    CHAPTER37=02:34:16.948
    CHAPTER37NAME=
    CHAPTER38=02:39:39.470
    CHAPTER38NAME=
    CHAPTER39=02:41:15.466
    CHAPTER39NAME=
    CHAPTER40=02:45:48.071
    CHAPTER40NAME=
    CHAPTER41=02:46:52.970
    CHAPTER41NAME=
    CHAPTER42=02:51:30.113
    CHAPTER42NAME=
    CHAPTER43=02:52:35.745
    CHAPTER43NAME=
    CHAPTER44=02:57:47.090
    CHAPTER44NAME=
    CHAPTER45=03:06:14.597
    CHAPTER45NAME=
    Quote Quote  
  2. you can use TSmuxer .. has cutting and remux options
    責任者
    Quote Quote  



Similar Threads