VideoHelp Forum

Try DVDFab and download streaming video, copy, convert or make Blu-rays,DVDs! Download free trial !
+ Reply to Thread
Results 1 to 22 of 22
Thread
  1. I recently ran into an issue with youtubedl. Using the -f flag, I can only get youtubedl to list the audio files for the stream, I can't get the list of video file as I was able to a few days ago ?
    Quote Quote  
  2. Member
    Join Date
    Aug 2018
    Location
    Denmark
    Search PM
    -F should give you a list with all available audio and video streams.
    Quote Quote  
  3. I'm only getting audio streams ?
    Quote Quote  
  4. Member
    Join Date
    Aug 2018
    Location
    Denmark
    Search PM
    Is there a link we can test??
    Quote Quote  
  5. Member
    Join Date
    Aug 2018
    Location
    Denmark
    Search PM
    It seems to a CBS account is required, i don't have one.
    Quote Quote  
  6. You don't need CBS account, feed the URL + proxy, don't you know ?
    Quote Quote  
  7. Member
    Join Date
    Aug 2018
    Location
    Denmark
    Search PM
    Yes.

    I got this list with video streams with youtube-dl:
    D:\Downloads\Youtube-DL>youtube-dl -F https://www.cbs.com/shows/the_young_and_the_restless/video/0_ZUZUD1libXlpetZa06kDmVePw...less-9-19-2018
    [CBS] 0_ZUZUD1libXlpetZa06kDmVePwoYiFP: Downloading XML
    [CBS] 0_ZUZUD1libXlpetZa06kDmVePwoYiFP: Downloading StreamPack SMIL data
    [CBS] 0_ZUZUD1libXlpetZa06kDmVePwoYiFP: Downloading m3u8 information
    [CBS] 0_ZUZUD1libXlpetZa06kDmVePwoYiFP: Downloading JSON metadata
    [info] Available formats for 0_ZUZUD1libXlpetZa06kDmVePwoYiFP:
    format code extension resolution note
    hls-93 mp4 audio only 93k , mp4a.40.2
    hls-498 mp4 640x360 498k , avc1.640028, mp4a.40.2
    hls-841 mp4 768x432 841k , avc1.640028, mp4a.40.2
    hls-1619 mp4 960x540 1619k , avc1.640028, mp4a.40.2
    hls-2216 mp4 1024x576 2216k , avc1.640028, mp4a.40.2
    hls-3113 mp4 1280x720 3113k , avc1.640028, mp4a.40.2
    hls-4613 mp4 1920x1080 4613k , avc1.640028, mp4a.40.2 (best)
    But i got problems with a test download, i don't know if it's my VPN that making the problems.
    Quote Quote  
  8. Can you try with a proxy, it's still not working for myself.
    Quote Quote  
  9. I want to know why I'm not getting video streams, rather only audio with youtubedl ?
    Quote Quote  
  10. I can try Streamlink, but can anyone else get youtubedl to list video files, for the link given in post #5 ?
    Quote Quote  
  11. Use proxy USA.
    Quote Quote  
  12. I was using an American Proxy, same results it lists the Audio files ?
    Quote Quote  
  13. Originally Posted by PowerFalcon
    I can try Streamlink, but can anyone else get youtubedl to list video files, for the link given in post #5 ?
    At first try the 1280x720 but it takes a lot of time, so I decided to try something smaller 768x432

    C:\youtube>youtube-dl -F https://www.cbs.com/shows/the_young_and_the_restless/video/0_ZUZUD1libXlpetZa06kDmVePw...ess-9-19-2018/
    [CBS] 0_ZUZUD1libXlpetZa06kDmVePwoYiFP: Downloading XML
    [CBS] 0_ZUZUD1libXlpetZa06kDmVePwoYiFP: Downloading StreamPack SMIL data
    [CBS] 0_ZUZUD1libXlpetZa06kDmVePwoYiFP: Downloading m3u8 information
    [CBS] 0_ZUZUD1libXlpetZa06kDmVePwoYiFP: Downloading JSON metadata
    [info] Available formats for 0_ZUZUD1libXlpetZa06kDmVePwoYiFP:
    format code extension resolution note
    hls-93 mp4 audio only 93k , mp4a.40.2
    hls-498 mp4 640x360 498k , avc1.640028, mp4a.40.2
    hls-841 mp4 768x432 841k , avc1.640028, mp4a.40.2
    hls-1619 mp4 960x540 1619k , avc1.640028, mp4a.40.2
    hls-2216 mp4 1024x576 2216k , avc1.640028, mp4a.40.2
    hls-3113 mp4 1280x720 3113k , avc1.640028, mp4a.40.2
    hls-4613 mp4 1920x1080 4613k , avc1.640028, mp4a.40.2 (best)

    C:\youtube>youtube-dl -f hls-841 https://www.cbs.com/shows/the_young_and_the_restless/video/0_ZUZUD1libXlpetZa06kDmVePw...ess-9-19-2018/
    [CBS] 0_ZUZUD1libXlpetZa06kDmVePwoYiFP: Downloading XML
    [CBS] 0_ZUZUD1libXlpetZa06kDmVePwoYiFP: Downloading StreamPack SMIL data
    [CBS] 0_ZUZUD1libXlpetZa06kDmVePwoYiFP: Downloading m3u8 information
    [CBS] 0_ZUZUD1libXlpetZa06kDmVePwoYiFP: Downloading JSON metadata
    [download] Destination: The Young and the Restless - 9_19_2018-0_ZUZUD1libXlpetZa06kDmVePwoYiFP.mp4
    ffmpeg version N-90810-g153e920892 Copyright (c) 2000-2018 the FFmpeg developers
    built with gcc 7.3.0 (GCC)
    configuration: --enable-gpl --enable-version3 --enable-sdl2 --enable-bzlib --enable-fontconfig --enable-gnutls --enable-iconv --enable-libass --enable-libbluray --enable-libfreetype --enable-libmp3lame --enable-libopencore-amrnb --enable-libopencore-amrwb --enable-libopenjpeg --enable-libopus --enable-libshine --enable-libsnappy --enable-libsoxr --enable-libtheora --enable-libtwolame --enable-libvpx --enable-libwavpack --enable-libwebp --enable-libx264 --enable-libx265 --enable-libxml2 --enable-libzimg --enable-lzma --enable-zlib --enable-gmp --enable-libvidstab --enable-libvorbis --enable-libvo-amrwbenc --enable-libmysofa --enable-libspeex --enable-libxvid --enable-libaom --enable-libmfx --enable-amf --enable-ffnvcodec --enable-cuvid --enable-d3d11va --enable-nvenc --enable-nvdec --enable-dxva2 --enable-avisynth
    libavutil 56. 15.100 / 56. 15.100
    libavcodec 58. 19.100 / 58. 19.100
    libavformat 58. 13.100 / 58. 13.100
    libavdevice 58. 4.100 / 58. 4.100
    libavfilter 7. 19.100 / 7. 19.100
    libswscale 5. 2.100 / 5. 2.100
    libswresample 3. 2.100 / 3. 2.100
    libpostproc 55. 2.100 / 55. 2.100.
    .
    .
    .
    .
    Duration: 00:36:33.98, start: 0.100667, bitrate: 0 kb/s
    Program 0
    Metadata:
    variant_bitrate : 0
    Stream #0:0: Video: h264 (High) ([27][0][0][0] / 0x001B), yuv420p, 768x432 [SAR 1:1 DAR 16:9], 29.97 tbr, 90k tbn, 59.94 tbc
    Metadata:
    variant_bitrate : 0
    Stream #0:1: Audio: aac (LC) ([15][0][0][0] / 0x000F), 48000 Hz, stereo, fltp
    Metadata:
    variant_bitrate : 0
    Output #0, mp4, to 'file:The Young and the Restless - 9_19_2018-0_ZUZUD1libXlpetZa06kDmVePwoYiFP.mp4.part':
    Metadata:
    encoder : Lavf58.13.100
    Stream #0:0: Video: h264 (High) (avc1 / 0x31637661), yuv420p, 768x432 [SAR 1:1 DAR 16:9], q=2-31, 29.97 tbr, 90k tbn, 90k tbc
    Metadata:
    variant_bitrate : 0
    Stream #0:1: Audio: aac (LC) (mp4a / 0x6134706D), 48000 Hz, stereo, fltp
    Metadata:
    variant_bitrate : 0
    Stream mapping:
    Stream #0:0 -> #0:0 (copy)
    Stream #0:1 -> #0:1 (copy)
    Press [q] to stop, [?] for help
    [hls,applehttp @ 0000027e8aecb440] Opening 'crypto+https://cbsios-vh.akamaihd.net/i/temp_hd_gallery_video/CBS_Production_Outlet_VMS/video...63028e6df30d54' for reading
    [hls,applehttp @ 0000027e8aecb440] Opening 'crypto+https://cbsios-vh.akamaihd.net/i/temp_hd_gallery_video/CBS_Production_Outlet_VMS/video...63028e6df30d54' for reading
    [hls,applehttp @ 0000027e8aecb440] Opening 'crypto+https://cbsios-vh.akamaihd.net/i/temp_hd_gallery_video/CBS_Production_Outlet_VMS/video...63028e6df30d54' for reading
    [hls,applehttp @ 0000027e8aecb440] Opening 'crypto+https://cbsios-vh.akamaihd.net/i/temp_hd_gallery_video/CBS_Production_Outlet_VMS/video...63028e6df30d54' for reading
    .
    .
    .
    [hls,applehttp @ 0000027e8aecb440] Opening 'crypto+https://cbsios-vh.akamaihd.net/i/temp_hd_gallery_video/CBS_Production_Outlet_VMS/video...63028e6df30d54' for reading
    [hls,applehttp @ 0000027e8aecb440] Opening 'crypto+https://cbsios-vh.akamaihd.net/i/temp_hd_gallery_video/CBS_Production_Outlet_VMS/video...63028e6df30d54' for reading
    [hls,applehttp @ 0000027e8aecb440] Opening 'crypto+https://cbsios-vh.akamaihd.net/i/temp_hd_gallery_video/CBS_Production_Outlet_VMS/video...63028e6df30d54' for reading
    frame=65152 fps= 26 q=-1.0 Lsize= 226822kB time=00:36:33.96 bitrate= 846.9kbits/s speed=0.889x
    video:199337kB audio:24779kB subtitle:0kB other streams:0kB global headers:0kB muxing overhead: 1.207088%
    [ffmpeg] Downloaded 232265500 bytes
    [download] 100% of 221.51MiB in 41:19

    C:\youtube>
    There are 219 segments and even so it takes a good time .. using vpn usa.
    Last edited by sekininsha; 24th Sep 2018 at 23:06.
    責任者
    Quote Quote  
  14. Originally Posted by sekininsha View Post
    Originally Posted by PowerFalcon
    I can try Streamlink, but can anyone else get youtubedl to list video files, for the link given in post #5 ?
    At first try the 1280x720 but it takes a lot of time, so I decided to try something smaller 768x432

    C:\youtube>youtube-dl -F https://www.cbs.com/shows/the_young_and_the_restless/video/0_ZUZUD1libXlpetZa06kDmVePw...ess-9-19-2018/
    [CBS] 0_ZUZUD1libXlpetZa06kDmVePwoYiFP: Downloading XML
    [CBS] 0_ZUZUD1libXlpetZa06kDmVePwoYiFP: Downloading StreamPack SMIL data
    [CBS] 0_ZUZUD1libXlpetZa06kDmVePwoYiFP: Downloading m3u8 information
    [CBS] 0_ZUZUD1libXlpetZa06kDmVePwoYiFP: Downloading JSON metadata
    [info] Available formats for 0_ZUZUD1libXlpetZa06kDmVePwoYiFP:
    format code extension resolution note
    hls-93 mp4 audio only 93k , mp4a.40.2
    hls-498 mp4 640x360 498k , avc1.640028, mp4a.40.2
    hls-841 mp4 768x432 841k , avc1.640028, mp4a.40.2
    hls-1619 mp4 960x540 1619k , avc1.640028, mp4a.40.2
    hls-2216 mp4 1024x576 2216k , avc1.640028, mp4a.40.2
    hls-3113 mp4 1280x720 3113k , avc1.640028, mp4a.40.2
    hls-4613 mp4 1920x1080 4613k , avc1.640028, mp4a.40.2 (best)

    C:\youtube>youtube-dl -f hls-498 https://www.cbs.com/shows/the_young_and_the_restless/video/0_ZUZUD1libXlpetZa06kDmVePw...ess-9-19-2018/
    [CBS] 0_ZUZUD1libXlpetZa06kDmVePwoYiFP: Downloading XML
    [CBS] 0_ZUZUD1libXlpetZa06kDmVePwoYiFP: Downloading StreamPack SMIL data
    [CBS] 0_ZUZUD1libXlpetZa06kDmVePwoYiFP: Downloading m3u8 information
    [CBS] 0_ZUZUD1libXlpetZa06kDmVePwoYiFP: Downloading JSON metadata
    ERROR: Unable to download JSON metadata: '' (caused by BadStatusLine("''",)); please report this issue on https://yt-dl.org/bug . Make sure you are using the latest version; type youtube-dl -U to update. Be sure to call youtube-dl with the --verbose flag and include its complete output.

    C:\youtube>youtube-dl -f hls-841 https://www.cbs.com/shows/the_young_and_the_restless/video/0_ZUZUD1libXlpetZa06kDmVePw...ess-9-19-2018/
    [CBS] 0_ZUZUD1libXlpetZa06kDmVePwoYiFP: Downloading XML
    [CBS] 0_ZUZUD1libXlpetZa06kDmVePwoYiFP: Downloading StreamPack SMIL data
    [CBS] 0_ZUZUD1libXlpetZa06kDmVePwoYiFP: Downloading m3u8 information
    [CBS] 0_ZUZUD1libXlpetZa06kDmVePwoYiFP: Downloading JSON metadata
    [download] Destination: The Young and the Restless - 9_19_2018-0_ZUZUD1libXlpetZa06kDmVePwoYiFP.mp4
    ffmpeg version N-90810-g153e920892 Copyright (c) 2000-2018 the FFmpeg developers
    built with gcc 7.3.0 (GCC)
    configuration: --enable-gpl --enable-version3 --enable-sdl2 --enable-bzlib --enable-fontconfig --enable-gnutls --enable-iconv --enable-libass --enable-libbluray --enable-libfreetype --enable-libmp3lame --enable-libopencore-amrnb --enable-libopencore-amrwb --enable-libopenjpeg --enable-libopus --enable-libshine --enable-libsnappy --enable-libsoxr --enable-libtheora --enable-libtwolame --enable-libvpx --enable-libwavpack --enable-libwebp --enable-libx264 --enable-libx265 --enable-libxml2 --enable-libzimg --enable-lzma --enable-zlib --enable-gmp --enable-libvidstab --enable-libvorbis --enable-libvo-amrwbenc --enable-libmysofa --enable-libspeex --enable-libxvid --enable-libaom --enable-libmfx --enable-amf --enable-ffnvcodec --enable-cuvid --enable-d3d11va --enable-nvenc --enable-nvdec --enable-dxva2 --enable-avisynth
    libavutil 56. 15.100 / 56. 15.100
    libavcodec 58. 19.100 / 58. 19.100
    libavformat 58. 13.100 / 58. 13.100
    libavdevice 58. 4.100 / 58. 4.100
    libavfilter 7. 19.100 / 7. 19.100
    libswscale 5. 2.100 / 5. 2.100
    libswresample 3. 2.100 / 3. 2.100
    libpostproc 55. 2.100 / 55. 2.100.
    .
    .
    .
    .
    Duration: 00:36:33.98, start: 0.100667, bitrate: 0 kb/s
    Program 0
    Metadata:
    variant_bitrate : 0
    Stream #0:0: Video: h264 (High) ([27][0][0][0] / 0x001B), yuv420p, 768x432 [SAR 1:1 DAR 16:9], 29.97 tbr, 90k tbn, 59.94 tbc
    Metadata:
    variant_bitrate : 0
    Stream #0:1: Audio: aac (LC) ([15][0][0][0] / 0x000F), 48000 Hz, stereo, fltp
    Metadata:
    variant_bitrate : 0
    Output #0, mp4, to 'file:The Young and the Restless - 9_19_2018-0_ZUZUD1libXlpetZa06kDmVePwoYiFP.mp4.part':
    Metadata:
    encoder : Lavf58.13.100
    Stream #0:0: Video: h264 (High) (avc1 / 0x31637661), yuv420p, 768x432 [SAR 1:1 DAR 16:9], q=2-31, 29.97 tbr, 90k tbn, 90k tbc
    Metadata:
    variant_bitrate : 0
    Stream #0:1: Audio: aac (LC) (mp4a / 0x6134706D), 48000 Hz, stereo, fltp
    Metadata:
    variant_bitrate : 0
    Stream mapping:
    Stream #0:0 -> #0:0 (copy)
    Stream #0:1 -> #0:1 (copy)
    Press [q] to stop, [?] for help
    [hls,applehttp @ 0000027e8aecb440] Opening 'crypto+https://cbsios-vh.akamaihd.net/i/temp_hd_gallery_video/CBS_Production_Outlet_VMS/video...63028e6df30d54' for reading
    [hls,applehttp @ 0000027e8aecb440] Opening 'crypto+https://cbsios-vh.akamaihd.net/i/temp_hd_gallery_video/CBS_Production_Outlet_VMS/video...63028e6df30d54' for reading
    [hls,applehttp @ 0000027e8aecb440] Opening 'crypto+https://cbsios-vh.akamaihd.net/i/temp_hd_gallery_video/CBS_Production_Outlet_VMS/video...63028e6df30d54' for reading
    [hls,applehttp @ 0000027e8aecb440] Opening 'crypto+https://cbsios-vh.akamaihd.net/i/temp_hd_gallery_video/CBS_Production_Outlet_VMS/video...63028e6df30d54' for reading
    .
    .
    .
    [hls,applehttp @ 0000027e8aecb440] Opening 'crypto+https://cbsios-vh.akamaihd.net/i/temp_hd_gallery_video/CBS_Production_Outlet_VMS/video...63028e6df30d54' for reading
    [hls,applehttp @ 0000027e8aecb440] Opening 'crypto+https://cbsios-vh.akamaihd.net/i/temp_hd_gallery_video/CBS_Production_Outlet_VMS/video...63028e6df30d54' for reading
    [hls,applehttp @ 0000027e8aecb440] Opening 'crypto+https://cbsios-vh.akamaihd.net/i/temp_hd_gallery_video/CBS_Production_Outlet_VMS/video...63028e6df30d54' for reading
    frame=65152 fps= 26 q=-1.0 Lsize= 226822kB time=00:36:33.96 bitrate= 846.9kbits/s speed=0.889x
    video:199337kB audio:24779kB subtitle:0kB other streams:0kB global headers:0kB muxing overhead: 1.207088%
    [ffmpeg] Downloaded 232265500 bytes
    [download] 100% of 221.51MiB in 41:19

    C:\youtube>
    There are 219 segments and even so it takes a good time .. using vpn usa.
    As you see, only audio files HLS are being listed, where is the video file ? A week ago I could get a list of rtmp files ?
    Quote Quote  
  15. It is video:

    hls-498 mp4 640x360 498k , avc1.640028, mp4a.40.2
    hls-841 mp4 768x432 841k , avc1.640028, mp4a.40.2
    hls-1619 mp4 960x540 1619k , avc1.640028, mp4a.40.2
    hls-2216 mp4 1024x576 2216k , avc1.640028, mp4a.40.2
    hls-3113 mp4 1280x720 3113k , avc1.640028, mp4a.40.2
    hls-4613 mp4 1920x1080 4613k , avc1.640028, mp4a.40.2 (best)
    Quote Quote  
  16. Originally Posted by sekininsha View Post
    Originally Posted by PowerFalcon
    I can try Streamlink, but can anyone else get youtubedl to list video files, for the link given in post #5 ?
    At first try the 1280x720 but it takes a lot of time, so I decided to try something smaller 768x432

    C:\youtube>youtube-dl -F https://www.cbs.com/shows/the_young_and_the_restless/video/0_ZUZUD1libXlpetZa06kDmVePw...ess-9-19-2018/
    [CBS] 0_ZUZUD1libXlpetZa06kDmVePwoYiFP: Downloading XML
    [CBS] 0_ZUZUD1libXlpetZa06kDmVePwoYiFP: Downloading StreamPack SMIL data
    [CBS] 0_ZUZUD1libXlpetZa06kDmVePwoYiFP: Downloading m3u8 information
    [CBS] 0_ZUZUD1libXlpetZa06kDmVePwoYiFP: Downloading JSON metadata
    [info] Available formats for 0_ZUZUD1libXlpetZa06kDmVePwoYiFP:
    format code extension resolution note
    hls-93 mp4 audio only 93k , mp4a.40.2
    hls-498 mp4 640x360 498k , avc1.640028, mp4a.40.2
    hls-841 mp4 768x432 841k , avc1.640028, mp4a.40.2
    hls-1619 mp4 960x540 1619k , avc1.640028, mp4a.40.2
    hls-2216 mp4 1024x576 2216k , avc1.640028, mp4a.40.2
    hls-3113 mp4 1280x720 3113k , avc1.640028, mp4a.40.2
    hls-4613 mp4 1920x1080 4613k , avc1.640028, mp4a.40.2 (best)

    C:\youtube>youtube-dl -f hls-841 https://www.cbs.com/shows/the_young_and_the_restless/video/0_ZUZUD1libXlpetZa06kDmVePw...ess-9-19-2018/
    [CBS] 0_ZUZUD1libXlpetZa06kDmVePwoYiFP: Downloading XML
    [CBS] 0_ZUZUD1libXlpetZa06kDmVePwoYiFP: Downloading StreamPack SMIL data
    [CBS] 0_ZUZUD1libXlpetZa06kDmVePwoYiFP: Downloading m3u8 information
    [CBS] 0_ZUZUD1libXlpetZa06kDmVePwoYiFP: Downloading JSON metadata
    [download] Destination: The Young and the Restless - 9_19_2018-0_ZUZUD1libXlpetZa06kDmVePwoYiFP.mp4
    ffmpeg version N-90810-g153e920892 Copyright (c) 2000-2018 the FFmpeg developers
    built with gcc 7.3.0 (GCC)
    configuration: --enable-gpl --enable-version3 --enable-sdl2 --enable-bzlib --enable-fontconfig --enable-gnutls --enable-iconv --enable-libass --enable-libbluray --enable-libfreetype --enable-libmp3lame --enable-libopencore-amrnb --enable-libopencore-amrwb --enable-libopenjpeg --enable-libopus --enable-libshine --enable-libsnappy --enable-libsoxr --enable-libtheora --enable-libtwolame --enable-libvpx --enable-libwavpack --enable-libwebp --enable-libx264 --enable-libx265 --enable-libxml2 --enable-libzimg --enable-lzma --enable-zlib --enable-gmp --enable-libvidstab --enable-libvorbis --enable-libvo-amrwbenc --enable-libmysofa --enable-libspeex --enable-libxvid --enable-libaom --enable-libmfx --enable-amf --enable-ffnvcodec --enable-cuvid --enable-d3d11va --enable-nvenc --enable-nvdec --enable-dxva2 --enable-avisynth
    libavutil 56. 15.100 / 56. 15.100
    libavcodec 58. 19.100 / 58. 19.100
    libavformat 58. 13.100 / 58. 13.100
    libavdevice 58. 4.100 / 58. 4.100
    libavfilter 7. 19.100 / 7. 19.100
    libswscale 5. 2.100 / 5. 2.100
    libswresample 3. 2.100 / 3. 2.100
    libpostproc 55. 2.100 / 55. 2.100.
    .
    .
    .
    .
    Duration: 00:36:33.98, start: 0.100667, bitrate: 0 kb/s
    Program 0
    Metadata:
    variant_bitrate : 0
    Stream #0:0: Video: h264 (High) ([27][0][0][0] / 0x001B), yuv420p, 768x432 [SAR 1:1 DAR 16:9], 29.97 tbr, 90k tbn, 59.94 tbc
    Metadata:
    variant_bitrate : 0
    Stream #0:1: Audio: aac (LC) ([15][0][0][0] / 0x000F), 48000 Hz, stereo, fltp
    Metadata:
    variant_bitrate : 0
    Output #0, mp4, to 'file:The Young and the Restless - 9_19_2018-0_ZUZUD1libXlpetZa06kDmVePwoYiFP.mp4.part':
    Metadata:
    encoder : Lavf58.13.100
    Stream #0:0: Video: h264 (High) (avc1 / 0x31637661), yuv420p, 768x432 [SAR 1:1 DAR 16:9], q=2-31, 29.97 tbr, 90k tbn, 90k tbc
    Metadata:
    variant_bitrate : 0
    Stream #0:1: Audio: aac (LC) (mp4a / 0x6134706D), 48000 Hz, stereo, fltp
    Metadata:
    variant_bitrate : 0
    Stream mapping:
    Stream #0:0 -> #0:0 (copy)
    Stream #0:1 -> #0:1 (copy)
    Press [q] to stop, [?] for help
    [hls,applehttp @ 0000027e8aecb440] Opening 'crypto+https://cbsios-vh.akamaihd.net/i/temp_hd_gallery_video/CBS_Production_Outlet_VMS/video...63028e6df30d54' for reading
    [hls,applehttp @ 0000027e8aecb440] Opening 'crypto+https://cbsios-vh.akamaihd.net/i/temp_hd_gallery_video/CBS_Production_Outlet_VMS/video...63028e6df30d54' for reading
    [hls,applehttp @ 0000027e8aecb440] Opening 'crypto+https://cbsios-vh.akamaihd.net/i/temp_hd_gallery_video/CBS_Production_Outlet_VMS/video...63028e6df30d54' for reading
    [hls,applehttp @ 0000027e8aecb440] Opening 'crypto+https://cbsios-vh.akamaihd.net/i/temp_hd_gallery_video/CBS_Production_Outlet_VMS/video...63028e6df30d54' for reading
    .
    .
    .
    [hls,applehttp @ 0000027e8aecb440] Opening 'crypto+https://cbsios-vh.akamaihd.net/i/temp_hd_gallery_video/CBS_Production_Outlet_VMS/video...63028e6df30d54' for reading
    [hls,applehttp @ 0000027e8aecb440] Opening 'crypto+https://cbsios-vh.akamaihd.net/i/temp_hd_gallery_video/CBS_Production_Outlet_VMS/video...63028e6df30d54' for reading
    [hls,applehttp @ 0000027e8aecb440] Opening 'crypto+https://cbsios-vh.akamaihd.net/i/temp_hd_gallery_video/CBS_Production_Outlet_VMS/video...63028e6df30d54' for reading
    frame=65152 fps= 26 q=-1.0 Lsize= 226822kB time=00:36:33.96 bitrate= 846.9kbits/s speed=0.889x
    video:199337kB audio:24779kB subtitle:0kB other streams:0kB global headers:0kB muxing overhead: 1.207088%
    [ffmpeg] Downloaded 232265500 bytes
    [download] 100% of 221.51MiB in 41:19

    C:\youtube>
    There are 219 segments and even so it takes a good time .. using vpn usa.
    How do you pick out the MP4 file, it's not the same steps as I did a week ago considering they changed the format. Now there is a MP4.csmil attached to the file, previous the file ended at MP4 ?
    Quote Quote  
  17. How do I get a video file from an HLS as I'm accustomed too rtmp files ?
    How do you get RTMPdump, what commands needed to fetch the file using youtubedl & rtmp ?
    Last edited by PowerFalcon; 26th Sep 2018 at 19:56.
    Quote Quote  
  18. Originally Posted by PowerFalcon View Post
    How do I get a video file from an HLS as I'm accustomed too rtmp files ?
    How do you get RTMPdump, what commands needed to fetch the file using youtubedl & rtmp ?
    StreamLink is the best 'all-round' tool for downloading hls streams. And its free. If you're using Windows get the 32mb .exe installer from here Although there is no one app that will download everything from the web. Youtube-dl is also a major player but in my opinion (for what thats worth) lends itself better to fixed VOD's (YT, FB, Dailymotion) rather than Live broadcast streams. (Although both apps regularly cross over usages as do stream types.) Often both will succeed.

    Website owners will not adapt their streams to rtmp to suit your downloading experiences. You need a multitude of tools to be able to cope with any variant thrown at you.

    StreamLink also has a built in rtmp plugin for these type of streams. And a built in ffmpeg plugin too. No extra/additional/fancy commands are required by the user to utilise/call these plugins. Read the command line usage examples here.

    If you are struggling with the syntax (commands issued to the program) post the url of the video you are trying to download - and your own attempt at the syntax - and perhaps someone may fine tune it for you.
    Last edited by codehound; 27th Sep 2018 at 06:14.
    Quote Quote  
  19. Originally Posted by codehound View Post
    Originally Posted by PowerFalcon View Post
    How do I get a video file from an HLS as I'm accustomed too rtmp files ?
    How do you get RTMPdump, what commands needed to fetch the file using youtubedl & rtmp ?
    StreamLink is the best 'all-round' tool for downloading hls streams. And its free. If you're using Windows get the 32mb .exe installer from here Although there is no one app that will download everything from the web. Youtube-dl is also a major player but in my opinion (for what thats worth) lends itself better to fixed VOD's (YT, FB, Dailymotion) rather than Live broadcast streams. (Although both apps regularly cross over usages as do stream types.) Often both will succeed.

    Website owners will not adapt their streams to rtmp to suit your downloading experiences. You need a multitude of tools to be able to cope with any variant thrown at you.

    StreamLink also has a built in rtmp plugin for these type of streams. And a built in ffmpeg plugin too. No extra/additional/fancy commands are required by the user to utilise/call these plugins. Read the command line usage examples here.

    If you are struggling with the syntax (commands issued to the program) post the url of the video you are trying to download - and your own attempt at the syntax - and perhaps someone may fine tune it for you.
    I assume when it comes to HLS streams; youtubedl won't work ?
    Quote Quote  



Similar Threads