VideoHelp Forum

Our website is made possible by displaying online advertisements to our visitors. Consider supporting us by disable your adblocker or Try ConvertXtoDVD and convert all your movies to DVD. Free trial ! :)
+ Reply to Thread
Results 1 to 7 of 7
Thread
  1. Hello All,

    I have a video file that will not play on my settop Blu-ray player.
    The error it gives says that it is not H.264

    Here is the media info dump...
    How to I get it to play???
    What software can I use to convert it???

    General
    Complete name : E:\ Videofilename.mp4
    Format : MPEG-4
    Format profile : Base Media
    Codec ID : isom (isom/iso2/avc1/mp41)
    File size : 301 MiB
    Duration : 7 min 55 s
    Overall bit rate : 5 308 kb/s
    Writing application : Lavf55.48.100

    Video
    ID : 1
    Format : AVC
    Format/Info : Advanced Video Codec
    Format profile : High@L4.2
    Format settings : CABAC / 3 Ref Frames
    Format settings, CABAC : Yes
    Format settings, RefFrames : 3 frames
    Codec ID : avc1
    Codec ID/Info : Advanced Video Coding
    Duration : 7 min 54 s
    Bit rate : 5 202 kb/s
    Width : 1 920 pixels
    Height : 1 080 pixels
    Display aspect ratio : 16:9
    Frame rate mode : Constant
    Frame rate : 60.000 FPS
    Color space : YUV
    Chroma subsampling : 4:2:0
    Bit depth : 8 bits
    Scan type : Progressive
    Bits/(Pixel*Frame) : 0.042
    Stream size : 295 MiB (98%)

    Audio
    ID : 2
    Format : AAC
    Format/Info : Advanced Audio Codec
    Format profile : LC
    Codec ID : mp4a-40-2
    Duration : 7 min 55 s
    Bit rate mode : Constant
    Bit rate : 93.6 kb/s
    Channel(s) : 2 channels
    Channel(s)_Original : 1 channel
    Channel positions : Front: C
    Sampling rate : 44.1 kHz
    Frame rate : 43.066 FPS (1024 SPF)
    Compression mode : Lossy
    Stream size : 5.30 MiB (2%)
    Default : Yes
    Alternate group : 1

    TIA
    Quote Quote  
  2. 1080p at 60 fps is not supported by by the Blu-ray spec. Some players can play it, apparently not yours. You might try changing the Profile@Level flag to 4.1 to see if you can trick your player into playing it.
    Quote Quote  
  3. Thank you.
    What program would be best to make that change?
    Quote Quote  
  4. First, make a backup copy of your file then try h.264 Level Editor: https://coolsoft.altervista.org/en/h264leveleditor
    Quote Quote  
  5. Thank you.
    Quote Quote  
  6. Member Cornucopia's Avatar
    Join Date
    Oct 2001
    Location
    Deep in the Heart of Texas
    Search PM
    Neither is AAC audio officially supported.

    Scott
    Quote Quote  
  7. Keep in mind that all h.264 Level Editor does is change the Profile@Level flag. It doesn't change the properties of the encoded video or audio. So the Blu-ray player still may not play the file. Or it may play the file but give jerky playback, stuttering audio, etc.

    If the Blu-ray player can play mp4 videos (not all Blu-ray players can do so) it can probably handle the aac audio. That's the most common audio codec used in mp4.
    Quote Quote  



Similar Threads