VideoHelp Forum

Our website is made possible by displaying online advertisements to our visitors. Consider supporting us by disable your adblocker or try DVDFab and copy, convert or make Blu-rays and DVDs! :)
+ Reply to Thread
Results 1 to 4 of 4
Thread
  1. Everything I say is false koberulz's Avatar
    Join Date
    Oct 2006
    Location
    Australia
    Search Comp PM
    Code:
    Format                                   : AC-3
    Format/Info                              : Audio Coding 3
    File size                                : 219 MiB
    Duration                                 : 2 h 16 min
    Overall bit rate mode                    : Constant
    Overall bit rate                         : 224 kb/s
    
    Audio
    Format                                   : AC-3
    Format/Info                              : Audio Coding 3
    Mode extension                           : CM (complete main)
    Format settings, Endianness              : Big
    Duration                                 : 2 h 16 min
    Bit rate mode                            : Constant
    Bit rate                                 : 224 kb/s
    Channel(s)                               : 2 channels
    Channel positions                        : Front: L R
    Sampling rate                            : 44.1 kHz
    Frame rate                               : 28.711 FPS (1536 spf)
    Bit depth                                : 16 bits
    Compression mode                         : Lossy
    Stream size                              : 219 MiB
    I had a hard drive failure recently, so I had to reinstall the OS and I'm not sure if I've got everything set up right. But as far as I know that ac3 file should be fine to go through Encore without transcoding. This one works just fine:
    Code:
    Format                                   : AC-3
    Format/Info                              : Audio Coding 3
    File size                                : 551 KiB
    Duration                                 : 20 s 160 ms
    Overall bit rate mode                    : Constant
    Overall bit rate                         : 224 kb/s
    
    Audio
    Format                                   : AC-3
    Format/Info                              : Audio Coding 3
    Mode extension                           : CM (complete main)
    Format settings, Endianness              : Big
    Duration                                 : 20 s 160 ms
    Bit rate mode                            : Constant
    Bit rate                                 : 224 kb/s
    Channel(s)                               : 2 channels
    Channel positions                        : Front: L R
    Sampling rate                            : 48.0 kHz
    Frame rate                               : 31.250 FPS (1536 spf)
    Bit depth                                : 16 bits
    Compression mode                         : Lossy
    Stream size                              : 551 KiB (100%)
    EDIT: Bizarre. Seems Audacity changed the sampling rate somehow. I just ran it through again, without even changing anything, and it's fine now.
    Quote Quote  
  2. Sampling rate 44.1 vs 48 kHz

    https://www.videohelp.com/dvd
    Quote Quote  
  3. Everything I say is false koberulz's Avatar
    Join Date
    Oct 2006
    Location
    Australia
    Search Comp PM
    Yeah, caught that. See my edit.

    No idea how or why it happened.
    Quote Quote  
  4. Mod Neophyte Super Moderator redwudz's Avatar
    Join Date
    Sep 2002
    Location
    USA
    Search Comp PM
    I deleted the duplicate topic post.

    Moderator redwudz
    Quote Quote  



Similar Threads