VideoHelp Forum

Our website is made possible by displaying online advertisements to our visitors. Consider supporting us by disable your adblocker or Try ConvertXtoDVD and convert all your movies to DVD. Free trial ! :)
+ Reply to Thread
Results 1 to 2 of 2
Thread
  1. Hello guys, i know im stupid, but i really hope someone can put a link togheter with theese informations.



    I want to download this : ffmpeg -i "https://vod49-dash-cdn1-vp-cdn-viaplay-tv.akamaized.net/9292039/20469881-1523890222418.ism/index.mpd"


    But it says i need to specify atleast one file, but how the heck i do that?


    Here a bit info, maybe it can help. I would like to download in 720p, if that possible

    Input #0, dash, from 'https://vod49-dash-cdn1-vp-cdn-viaplay-tv.akamaized.net/9292039/20469881-1523890222418.ism/index.mpd':
    Duration: 00:42:50.00, start: 0.000000, bitrate: 0 kb/s
    Program 0
    Stream #0:0: Video: h264 (Main) (avc1 / 0x31637661), yuv420p, 320x180 [SAR 1:1 DAR 16:9], 172 kb/s, 25 fps, 25 tbr, 90k tbn, 50 tbc
    Metadata:
    variant_bitrate : 150000
    id : video=150000
    Stream #0:1: Video: h264 (Main) (avc1 / 0x31637661), yuv420p, 512x288 [SAR 1:1 DAR 16:9], 339 kb/s, 25 fps, 25 tbr, 90k tbn, 50 tbc
    Metadata:
    variant_bitrate : 300000
    id : video=300000
    Stream #0:2: Video: h264 (Main) (avc1 / 0x31637661), yuv420p, 640x360 [SAR 1:1 DAR 16:9], 661 kb/s, 25 fps, 25 tbr, 90k tbn, 50 tbc
    Metadata:
    variant_bitrate : 600000
    id : video=600000
    Stream #0:3: Video: h264 (Main) (avc1 / 0x31637661), yuv420p, 960x540 [SAR 1:1 DAR 16:9], 1293 kb/s, 25 fps, 25 tbr, 90k tbn, 50 tbc
    Metadata:
    variant_bitrate : 1200000
    id : video=1200000
    Stream #0:4: Video: h264 (Main) (avc1 / 0x31637661), yuv420p, 1280x720 [SAR 1:1 DAR 16:9], 2707 kb/s, 25 fps, 25 tbr, 90k tbn, 50 tbc
    Metadata:
    variant_bitrate : 2400000
    id : video=2400000
    Stream #0:5: Video: h264 (High) (avc1 / 0x31637661), yuv420p, 1920x1080 [SAR 1:1 DAR 16:9], 5645 kb/s, 25 fps, 25 tbr, 90k tbn, 50 tbc
    Metadata:
    variant_bitrate : 4800000
    id : video=4800000
    Stream #0:6: Audio: eac3 (ec-3 / 0x332D6365), 48000 Hz, stereo, fltp, 96 kb/s
    Metadata:
    variant_bitrate : 96000
    id : audio_dan=96000
    Stream #0:7: Audio: ac3 (ac-3 / 0x332D6361), 48000 Hz, stereo, fltp, 128 kb/s
    Metadata:
    variant_bitrate : 128000
    id : audio_dan_1=128000
    Stream #0:8: Audio: aac (LC) (mp4a / 0x6134706D), 48000 Hz, stereo, fltp, 94 kb/s
    Metadata:
    variant_bitrate : 96000
    id : audio_dan_2=96000
    At least one output file must be specified
    Quote Quote  
  2. You need to specify an output filename:

    Code:
    ffmpeg -i "https://vod49-dash-cdn1-vp-cdn-viaplay-tv.akamaized.net/9292039/20469881-1523890222418.ism/index.mpd" Output.mp4
    I didn't test whether your link actually works.
    Quote Quote  



Similar Threads