VideoHelp Forum

Try DVDFab and download streaming video, copy, convert or make Blu-rays,DVDs! Download free trial !
+ Reply to Thread
Results 1 to 6 of 6
Thread
  1. This 12GB file is great quality, and has subs. But there's a Mel Gibson commentary track I'd like to lose.

    Can I do this with Subtitle Workshop?
    Quote Quote  
  2. Post the media info of the track...

    If the MKV, use MKVToolkit to remux the file and uncheck the commentary track.

    Subtitle Workshop can only work with TEXT based subtitle tracks
    Quote Quote  
  3. OK, thanks. So MKVToolkit just copies the entire original but leaves out any deselected sound track?
    Quote Quote  
  4. Member netmask56's Avatar
    Join Date
    Sep 2005
    Location
    Sydney, Australia
    Search Comp PM
    Yes!
    BeyonWiz T3 PVR ~ Popcorn A-500 ~ Samsung ES8000 65" LED TV ~ Windows 7 64bit ~ Yamaha RX-A1070 ~ QnapTS851-4G
    Quote Quote  
  5. teodz1984 and netmask56: Much thanks. I'm a newbie at this

    I thought I'd uploaded an attached Media Info file, but I'll incude it in the post, just in case.
    Cheers.
    ----------------------------------
    General
    Unique ID : 203640399036811696940817301870849553760 (0x9933B6D86144E2EAAED5B97FF76FF560)
    Complete name : M:\KEEPERS\Apocalypto 12GB-S.mkv
    Format : Matroska
    Format version : Version 4 / Version 2
    File size : 11.6 GiB
    Duration : 2 h 18 min
    Overall bit rate : 12.0 Mb/s
    Encoded date : UTC 2016-04-29 15:54:08 / UTC 2016-04-28T02:24:21Z
    Writing application : mkvmerge v8.3.0 ('Over the Horizon') 64bit
    Writing library : libebml v1.3.1 + libmatroska v1.4.2 / Lavf55.12.0

    Video
    ID : 1
    Format : AVC
    Format/Info : Advanced Video Codec
    Format profile : High@L4.1
    Format settings : CABAC / 4 Ref Frames
    Format settings, CABAC : Yes
    Format settings, RefFrames : 4 frames
    Codec ID : V_MPEG4/ISO/AVC
    Duration : 2 h 18 min
    Bit rate : 11.5 Mb/s
    Width : 1 920 pixels
    Height : 1 040 pixels
    Display aspect ratio : 1.85:1
    Frame rate mode : Constant
    Frame rate : 23.976 (24000/1001) FPS
    Color space : YUV
    Chroma subsampling : 4:2:0
    Bit depth : 8 bits
    Scan type : Progressive
    Bits/(Pixel*Frame) : 0.240
    Stream size : 10.6 GiB (91%)
    Writing library : x264 core 142 r2479 dd79a61
    Encoding settings : cabac=1 / ref=3 / deblock=1:-2:-2 / analyse=0x3:0x113 / me=hex / subme=7 / psy=1 / psy_rd=1.00:0.25 / mixed_ref=1 / me_range=16 / chroma_me=1 / trellis=1 / 8x8dct=1 / cqm=0 / deadzone=6,6 / fast_pskip=1 / chroma_qp_offset=-4 / threads=12 / lookahead_threads=2 / sliced_threads=0 / nr=0 / decimate=0 / interlaced=0 / bluray_compat=0 / constrained_intra=0 / bframes=3 / b_pyramid=2 / b_adapt=1 / b_bias=0 / direct=1 / weightb=1 / open_gop=0 / weightp=2 / keyint=240 / keyint_min=24 / scenecut=40 / intra_refresh=0 / rc_lookahead=40 / rc=abr / mbtree=1 / bitrate=11500 / ratetol=1.0 / qcomp=0.80 / qpmin=0 / qpmax=69 / qpstep=4 / vbv_maxrate=62500 / vbv_bufsize=78125 / nal_hrd=none / filler=0 / ip_ratio=1.10 / aq=1:0.50
    Default : Yes
    Forced : No
    Color range : Limited
    Color primaries : BT.709
    Transfer characteristics : BT.709
    Matrix coefficients : BT.709
    Statistics Tags Issue : mkvmerge v8.3.0 ('Over the Horizon') 64bit 2016-04-29 15:54:08 / mkvmerge v8.3.0 ('Over the Horizon') 64bit 2016-04-29 15:54:08 / UTC 2016-04-28T02:24:21Z
    FromStats_BitRate : 11172693
    FromStats_Duration : 02:18:21.312000000
    FromStats_FrameCount : 199032
    FromStats_StreamSize : 11593501522

    Audio #1
    ID : 2
    Format : AC-3
    Format/Info : Audio Coding 3
    Codec ID : A_AC3
    Duration : 2 h 18 min
    Bit rate mode : Constant
    Bit rate : 640 kb/s
    Channel(s) : 6 channels
    Channel positions : Front: L C R, Side: L R, LFE
    Sampling rate : 48.0 kHz
    Frame rate : 31.250 FPS (1536 SPF)
    Bit depth : 16 bits
    Compression mode : Lossy
    Stream size : 633 MiB (5%)
    Title : Surround
    Service kind : Complete Main
    Default : No
    Forced : No
    Statistics Tags Issue : mkvmerge v8.3.0 ('Over the Horizon') 64bit 2016-04-29 15:54:08 / mkvmerge v8.3.0 ('Over the Horizon') 64bit 2016-04-29 15:54:08 / UTC 2016-04-28T02:24:21Z
    FromStats_BitRate : 640000
    FromStats_Duration : 02:18:21.344000000
    FromStats_FrameCount : 259417
    FromStats_StreamSize : 664107520

    Audio #2
    ID : 3
    Format : AC-3
    Format/Info : Audio Coding 3
    Codec ID : A_AC3
    Duration : 2 h 18 min
    Bit rate mode : Constant
    Bit rate : 192 kb/s
    Channel(s) : 2 channels
    Channel positions : Front: L R
    Sampling rate : 48.0 kHz
    Frame rate : 31.250 FPS (1536 SPF)
    Bit depth : 16 bits
    Compression mode : Lossy
    Stream size : 190 MiB (2%)
    Title : Commentary with Mel Gibson and writer/co-producer Farhad Safinia
    Language : English
    Service kind : Complete Main
    Default : No
    Forced : No
    Statistics Tags Issue : mkvmerge v8.3.0 ('Over the Horizon') 64bit 2016-04-29 15:54:08 / mkvmerge v8.3.0 ('Over the Horizon') 64bit 2016-04-29 15:54:08 / UTC 2016-04-28T02:24:21Z
    FromStats_BitRate : 192000
    FromStats_Duration : 02:18:21.344000000
    FromStats_FrameCount : 259417
    FromStats_StreamSize : 199232256

    Text #1
    ID : 4
    Format : PGS
    Muxing mode : zlib
    Codec ID : S_HDMV/PGS
    Codec ID/Info : Picture based subtitle format used on BDs/HD-DVDs
    Language : English
    Default : No
    Forced : No
    Statistics Tags Issue : mkvmerge v8.3.0 ('Over the Horizon') 64bit 2016-04-29 15:54:08 / mkvmerge v8.3.0 ('Over the Horizon') 64bit 2016-04-29 15:54:08 / UTC 2016-04-28T02:24:21Z
    FromStats_BitRate : 1964
    FromStats_Duration : 02:08:40.755000000
    FromStats_FrameCount : 1002
    FromStats_StreamSize : 1895857

    Text #2
    ID : 5
    Format : PGS
    Muxing mode : zlib
    Codec ID : S_HDMV/PGS
    Codec ID/Info : Picture based subtitle format used on BDs/HD-DVDs
    Language : English
    Default : No
    Forced : No
    Statistics Tags Issue : mkvmerge v8.3.0 ('Over the Horizon') 64bit 2016-04-29 15:54:08 / mkvmerge v8.3.0 ('Over the Horizon') 64bit 2016-04-29 15:54:08 / UTC 2016-04-28T02:24:21Z
    FromStats_BitRate : 2622
    FromStats_Duration : 02:08:40.755000000
    FromStats_FrameCount : 1342
    FromStats_StreamSize : 2531258

    Text #3
    ID : 6
    Format : PGS
    Muxing mode : zlib
    Codec ID : S_HDMV/PGS
    Codec ID/Info : Picture based subtitle format used on BDs/HD-DVDs
    Language : French
    Default : No
    Forced : No
    Statistics Tags Issue : mkvmerge v8.3.0 ('Over the Horizon') 64bit 2016-04-29 15:54:08 / mkvmerge v8.3.0 ('Over the Horizon') 64bit 2016-04-29 15:54:08 / UTC 2016-04-28T02:24:21Z
    FromStats_BitRate : 1933
    FromStats_Duration : 02:08:40.755000000
    FromStats_FrameCount : 1000
    FromStats_StreamSize : 1865941

    Text #4
    ID : 7
    Format : PGS
    Muxing mode : zlib
    Codec ID : S_HDMV/PGS
    Codec ID/Info : Picture based subtitle format used on BDs/HD-DVDs
    Language : Spanish
    Default : No
    Forced : No
    Statistics Tags Issue : mkvmerge v8.3.0 ('Over the Horizon') 64bit 2016-04-29 15:54:08 / mkvmerge v8.3.0 ('Over the Horizon') 64bit 2016-04-29 15:54:08 / UTC 2016-04-28T02:24:21Z
    FromStats_BitRate : 1883
    FromStats_Duration : 02:17:23.110000000
    FromStats_FrameCount : 1004
    FromStats_StreamSize : 1940839

    Text #5
    ID : 8
    Format : PGS
    Muxing mode : zlib
    Codec ID : S_HDMV/PGS
    Codec ID/Info : Picture based subtitle format used on BDs/HD-DVDs
    Language : English
    Default : No
    Forced : No
    Statistics Tags Issue : mkvmerge v8.3.0 ('Over the Horizon') 64bit 2016-04-29 15:54:08 / mkvmerge v8.3.0 ('Over the Horizon') 64bit 2016-04-29 15:54:08 / UTC 2016-04-28T02:24:21Z
    FromStats_BitRate : 12085
    FromStats_Duration : 02:17:45.882000000
    FromStats_FrameCount : 3794
    FromStats_StreamSize : 12487654

    Menu
    00:00:00.000 : :Chapter 1
    00:08:19.434 : :Chapter 2
    00:13:03.843 : :Chapter 3
    00:19:17.383 : :Chapter 4
    00:23:09.823 : :Chapter 5
    00:32:34.346 : :Chapter 6
    00:37:45.281 : :Chapter 7
    00:48:28.758 : :Chapter 8
    00:56:39.206 : :Chapter 9
    01:00:53.877 : :Chapter 10
    01:09:15.211 : :Chapter 11
    01:18:13.040 : :Chapter 12
    01:23:15.884 : :Chapter 13
    01:32:12.379 : :Chapter 14
    01:43:07.825 : :Chapter 15
    01:50:15.085 : :Chapter 16
    01:57:45.785 : :Chapter 17
    02:08:06.572 : :Chapter 18
    02:09:49.133 : :Chapter 19


    ---------------------------------
    Quote Quote  
  6. Member netmask56's Avatar
    Join Date
    Sep 2005
    Location
    Sydney, Australia
    Search Comp PM
    Just untick Audio #2 and save (start multiplex)
    BeyonWiz T3 PVR ~ Popcorn A-500 ~ Samsung ES8000 65" LED TV ~ Windows 7 64bit ~ Yamaha RX-A1070 ~ QnapTS851-4G
    Quote Quote  



Similar Threads