VideoHelp Forum

Our website is made possible by displaying online advertisements to our visitors. Consider supporting us by disable your adblocker or Try ConvertXtoDVD and convert all your movies to DVD. Free trial ! :)
+ Reply to Thread
Results 1 to 9 of 9
Thread
  1. I recently downloaded .ts files for 5 videos from .m3u8 streams using add-ons. Each video was downloaded into a separate folder and divided into a least 100 segments in .ts format.
    Each of the 5 folders look something like this:
    Click image for larger version

Name:	xjFNItN.jpg
Views:	53
Size:	33.7 KB
ID:	45099

    The site I downloaded the files from uses HLS Streaming, Adobe Pass, and SAMPLE-AES encryption. The 5 videos I downloaded are supposed to be in HD 720p with audio. The problem is that there is no audio and a gray/distorted "video" once the .ts segments are compiled (and converted) into a single .ts file or video file such as .mp4. I used different methods (batch, Adobe HDS / HLS Video Saver, tsMuxeR_2.6.12) to join the .ts files. All of them ended with the same, miserable results.

    My .ts files look like this in Media Player Classic:
    Click image for larger version

Name:	IaLKhuv.jpg
Views:	45
Size:	95.4 KB
ID:	45095
    Click image for larger version

Name:	FZkVeo8.jpg
Views:	44
Size:	170.9 KB
ID:	45096

    Wondershare Video Ultimate (yes, before and after):
    Click image for larger version

Name:	vm3YxH8.jpg
Views:	41
Size:	32.3 KB
ID:	45097
    Click image for larger version

Name:	NRW1j0k.jpg
Views:	40
Size:	48.3 KB
ID:	45098

    VLC Player can't play my .ts file.

    Movies & TV also doesn't play it all.
    Error code: 0xc1010103
    Click image for larger version

Name:	FyCaj29.jpg
Views:	39
Size:	18.7 KB
ID:	45094

    Am I not using the right method or are my .ts files just useless with pointless data? Do you think the site's encryption methods caused this to happen?
    Quote Quote  
  2. Member hech54's Avatar
    Join Date
    Jul 2001
    Location
    Yank in Europe
    Search Comp PM
    Originally Posted by decoder View Post
    I recently downloaded
    Downloaded?....like "transferred" from a cable or satellite box?
    Quote Quote  
  3. Originally Posted by hech54 View Post
    Originally Posted by decoder View Post
    I recently downloaded
    Downloaded?....like "transferred" from a cable or satellite box?
    NO! It looks like it from the pictures, but only used my laptop and browser add-on to retrieve the .ts files. The problem I'm having now is reading them and figuring out if the data is real. If the data is real and not useless, then how can I properly compile the .ts files?
    Quote Quote  
  4. Post a link to one of them so we can analyze it. Probably it is encrypted though.
    Quote Quote  
  5. Rename one of those 0133x files to ts and check with MediaInfo to see if it's really identifying it as TransportStream. If you can't see any info about it, video is probably encrypted.
    Quote Quote  
  6. Originally Posted by veresov View Post
    Post a link to one of them so we can analyze it. Probably it is encrypted though.
    Originally Posted by badyu17 View Post
    Rename one of those 0133x files to ts and check with MediaInfo to see if it's really identifying it as TransportStream. If you can't see any info about it, video is probably encrypted.
    Here's information for 1 out of over 100 .ts files:

    Duration: 00:00:06.01, start: 1.466733, bitrate: 2758 kb/s
    Program 1
    Stream #0:0[0x100]: Video: h264 (Main) ([219][0][0][0] / 0x00DB), yuv420p(progressive), 1280x720 [SAR 1:1 DAR 16:9], Closed Captions, 29.97 fps, 29.97 tbr, 90k tbn, 59.94 tbc
    Stream #0:1[0x101]: Audio: aac (LC) (apad / 0x64617061), stereo, fltp, 121 kb/s

    Here is 1 .ts segment out of 120.
    https://files.fm/f/d3tjw5ga

    I am working on uploading a failed compilation of the .ts segments now.

    How can they be decrypted?
    Quote Quote  
  7. I was wrong to think that it's only encrypted if you can't see the video parameters. Well, in this case you can see them, you can even see x264 SEI (encoding settings used) but some important part after that is scrambled just enough so that player can only produce garbage. As for decryption, I have no idea. Screen capture is an option. Not ideal, but better than nothing.

    Input #0, mpegts, from '01689.ts':
    Duration: 00:00:06.01, start: 1.466733, bitrate: 2758 kb/s
    Program 1
    Stream #0:0[0x100]: Video: h264 (Main) ([219][0][0][0] / 0x00DB), yuv420p, 1280x720 [SAR 1:1 DAR 16:9], Closed Captions, 29.97 fps, 29.97 tbr, 90k tbn, 59.94 tbc
    Stream #0:1[0x101]: Audio: aac (LC) (apad / 0x64617061), stereo, fltp, 121 kb/s
    [h264 @ 00000000032e0900] error while decoding MB 13 0, bytestream -29
    [h264 @ 00000000032e0900] concealing 3600 DC, 3600 AC, 3600 MV errors in I frame
    [h264 @ 00000000036d2660] top block unavailable for requested intra mode -1
    [h264 @ 00000000036d2660] error while decoding MB 43 0, bytestream 8222
    [h264 @ 00000000036d2660] concealing 3600 DC, 3600 AC, 3600 MV errors in P frame
    [h264 @ 00000000025f8c40] concealing 3571 DC, 3571 AC, 3571 MV errors in P frame
    [h264 @ 00000000036d30c0] concealing 3365 DC, 3365 AC, 3365 MV errors in B frame
    [h264 @ 0000000003671220] concealing 3443 DC, 3443 AC, 3443 MV errors in B frame
    [h264 @ 00000000036706a0] concealing 3407 DC, 3407 AC, 3407 MV errors in B frame
    [h264 @ 00000000036ad800] top block unavailable for requested intra mode -1
    [h264 @ 00000000036ad800] error while decoding MB 79 0, bytestream 13120
    [h264 @ 00000000036cfda0] concealing 3330 DC, 3330 AC, 3330 MV errors in B frame
    [h264 @ 00000000036ad800] concealing 3570 DC, 3570 AC, 3570 MV errors in P frame
    [h264 @ 00000000036d2660] top block unavailable for requested intra mode -1
    [h264 @ 00000000036d2660] error while decoding MB 52 0, bytestream 14686
    [h264 @ 00000000036adca0] concealing 3331 DC, 3331 AC, 3331 MV errors in B frame
    [h264 @ 00000000032e0900] concealing 3545 DC, 3545 AC, 3545 MV errors in B frame
    [h264 @ 00000000036d2660] concealing 3597 DC, 3597 AC, 3597 MV errors in P frame
    [h264 @ 00000000036d30c0] concealing 3495 DC, 3495 AC, 3495 MV errors in B frame
    [h264 @ 00000000036706a0] concealing 3235 DC, 3235 AC, 3235 MV errors in B frame
    [h264 @ 00000000025f8c40] concealing 3582 DC, 3582 AC, 3582 MV errors in P frame
    [h264 @ 0000000003671220] concealing 3270 DC, 3270 AC, 3270 MV errors in B frame
    [h264 @ 00000000036cfda0] concealing 2393 DC, 2393 AC, 2393 MV errors in B frame
    Quote Quote  
  8. Originally Posted by badyu17 View Post
    I was wrong to think that it's only encrypted if you can't see the video parameters. Well, in this case you can see them, you can even see x264 SEI (encoding settings used) but some important part after that is scrambled just enough so that player can only produce garbage. As for decryption, I have no idea. Screen capture is an option. Not ideal, but but better than nothing.

    Input #0, mpegts, from '01689.ts':
    Duration: 00:00:06.01, start: 1.466733, bitrate: 2758 kb/s
    Program 1
    Stream #0:0[0x100]: Video: h264 (Main) ([219][0][0][0] / 0x00DB), yuv420p, 1280x720 [SAR 1:1 DAR 16:9], Closed Captions, 29.97 fps, 29.97 tbr, 90k tbn, 59.94 tbc
    Stream #0:1[0x101]: Audio: aac (LC) (apad / 0x64617061), stereo, fltp, 121 kb/s
    [h264 @ 00000000032e0900] error while decoding MB 13 0, bytestream -29
    [h264 @ 00000000032e0900] concealing 3600 DC, 3600 AC, 3600 MV errors in I frame
    [h264 @ 00000000036d2660] top block unavailable for requested intra mode -1
    [h264 @ 00000000036d2660] error while decoding MB 43 0, bytestream 8222
    [h264 @ 00000000036d2660] concealing 3600 DC, 3600 AC, 3600 MV errors in P frame
    [h264 @ 00000000025f8c40] concealing 3571 DC, 3571 AC, 3571 MV errors in P frame
    [h264 @ 00000000036d30c0] concealing 3365 DC, 3365 AC, 3365 MV errors in B frame
    [h264 @ 0000000003671220] concealing 3443 DC, 3443 AC, 3443 MV errors in B frame
    [h264 @ 00000000036706a0] concealing 3407 DC, 3407 AC, 3407 MV errors in B frame
    [h264 @ 00000000036ad800] top block unavailable for requested intra mode -1
    [h264 @ 00000000036ad800] error while decoding MB 79 0, bytestream 13120
    [h264 @ 00000000036cfda0] concealing 3330 DC, 3330 AC, 3330 MV errors in B frame
    [h264 @ 00000000036ad800] concealing 3570 DC, 3570 AC, 3570 MV errors in P frame
    [h264 @ 00000000036d2660] top block unavailable for requested intra mode -1
    [h264 @ 00000000036d2660] error while decoding MB 52 0, bytestream 14686
    [h264 @ 00000000036adca0] concealing 3331 DC, 3331 AC, 3331 MV errors in B frame
    [h264 @ 00000000032e0900] concealing 3545 DC, 3545 AC, 3545 MV errors in B frame
    [h264 @ 00000000036d2660] concealing 3597 DC, 3597 AC, 3597 MV errors in P frame
    [h264 @ 00000000036d30c0] concealing 3495 DC, 3495 AC, 3495 MV errors in B frame
    [h264 @ 00000000036706a0] concealing 3235 DC, 3235 AC, 3235 MV errors in B frame
    [h264 @ 00000000025f8c40] concealing 3582 DC, 3582 AC, 3582 MV errors in P frame
    [h264 @ 0000000003671220] concealing 3270 DC, 3270 AC, 3270 MV errors in B frame
    [h264 @ 00000000036cfda0] concealing 2393 DC, 2393 AC, 2393 MV errors in B frame
    And here is the compiled trash of .ts files. https://files.fm/f/xveb9suq

    Should I just delete all of these .ts files? Are they damaged and unrepairable?

    I have the .ts segment information via MediaInfo:
    Code:
    General
    ID                                       : 1 (0x1)
    Complete name                            : D:\VDT\_tmp_1522713230388 - Copy\01689.ts
    CompleteName_Last                        : D:\VDT\_tmp_1522713230388 - Copy\01805.ts
    Format                                   : MPEG-TS
    File size                                : 278 MiB
    Duration                                 : 10 min 17 s
    Overall bit rate mode                    : Variable
    Overall bit rate                         : 3 780 kb/s
    
    Video
    ID                                       : 256 (0x100)
    Menu ID                                  : 1 (0x1)
    Format                                   : AVC
    Format/Info                              : Advanced Video Codec
    Format profile                           : Main@L3.1
    Format settings                          : CABAC / 4 Ref Frames
    Format settings, CABAC                   : Yes
    Format settings, ReFrames                : 4 frames
    Format settings, GOP                     : M=3, N=60
    Codec ID                                 : 219
    Duration                                 : 11 min 42 s
    Bit rate                                 : 3 150 kb/s
    Width                                    : 1 280 pixels
    Height                                   : 720 pixels
    Display aspect ratio                     : 16:9
    Frame rate                               : 29.970 (29970/1000) FPS
    Color space                              : YUV
    Chroma subsampling                       : 4:2:0
    Bit depth                                : 8 bits
    Scan type                                : Progressive
    Bits/(Pixel*Frame)                       : 0.114
    Stream size                              : 269 MiB (96%)
    Writing library                          : x264 core 148 r236 a01e339
    Encoding settings                        : cabac=1 / ref=1 / deblock=1:0:0 / analyse=0x1:0x111 / me=hex / subme=2 / psy=1 / psy_rd=1.00:0.00 / mixed_ref=0 / me_range=16 / chroma_me=1 / trellis=0 / 8x8dct=0 / cqm=0 / deadzone=21,11 / fast_pskip=1 / chroma_qp_offset=0 / threads=22 / lookahead_threads=5 / sliced_threads=0 / nr=0 / decimate=1 / interlaced=0 / bluray_compat=0 / constrained_intra=0 / bframes=2 / b_pyramid=2 / b_adapt=0 / b_bias=0 / direct=1 / weightb=1 / open_gop=0 / weightp=1 / keyint=60 / keyint_min=6 / scenecut=0 / intra_refresh=0 / rc_lookahead=10 / rc=2pass / mbtree=1 / bitrate=3150 / ratetol=1.0 / qcomp=0.60 / qpmin=0 / qpmax=69 / qpstep=4 / cplxblur=20.0 / qblur=0.5 / vbv_maxrate=3150 / vbv_bufsize=3150 / nal_hrd=none / filler=0 / ip_ratio=1.40 / aq=1:1.00
    
    Audio
    ID                                       : 257 (0x101)
    Menu ID                                  : 1 (0x1)
    Format                                   : MPEG Audio
    Format version                           : Version 1
    Format profile                           : Layer 2
    Format settings                          : Intensity Stereo + MS Stereo / CCITT
    Codec ID                                 : 207
    Duration                                 : 11 min 36 s
    Bit rate mode                            : Constant
    Bit rate                                 : 384 kb/s
    Channel(s)                               : 1 channel
    Sampling rate                            : 48.0 kHz
    Frame rate                               : 19.141 FPS (2508 SPF)
    Compression mode                         : Lossy
    Stream size                              : 31.9 MiB (11%)
    
    Text #1
    ID                                       : 256 (0x100)-CC1
    Menu ID                                  : 1 (0x1)
    Format                                   : EIA-608
    Muxing mode                              : SCTE 128 / DTVCC Transport
    Muxing mode, more info                   : Muxed in Video #1
    Duration                                 : 11 min 42 s
    Bit rate mode                            : Constant
    Stream size                              : 0.00 Byte (0%)
    CaptionServiceName                       : CC1
    
    Text #2
    ID                                       : 256 (0x100)-1
    Menu ID                                  : 1 (0x1)
    Format                                   : EIA-708
    Muxing mode                              : SCTE 128 / DTVCC Transport
    Muxing mode, more info                   : Muxed in Video #1
    Duration                                 : 11 min 42 s
    Bit rate mode                            : Constant
    Stream size                              : 0.00 Byte (0%)
    As for the .reg key file pictured above, this is what is says in Notepad when I open it:
    Code:
    <?xml version="1.0" encoding="UTF-8"?>
    <Error><Code>AccessDenied</Code><Message>Access Denied</Message><RequestId>5E510337AD2250AD</RequestId><HostId>Pc12KMPQGGkjF5qneCzS9rqL/jxiDY1g4WtmSvxlY0VeVrlAEyGrKJ1mkfMooM9TOrOEUm9n028=</HostId></Error>
    Did the denial of access cause this garbage to be created?
    Quote Quote  
  9. Originally Posted by decoder View Post
    Should I just delete all of these .ts files?
    Yes, they are encrypted.
    Quote Quote  



Similar Threads