VideoHelp Forum
Closed Thread
Results 1 to 12 of 12
Thread
  1. How do you remove encryption on a .mp4 movie I have been told there is passkey but dont understand it all.

  2. aBigMeanie aedipuss's Avatar
    Join Date
    Oct 2005
    Location
    666th portal
    Search Comp PM
    sounds more like you've got a virus waiting to happen. if an mp4 says you have to do something odd to open it, that something will most likely infect your computer. encryption has to be removed before converting to mp4.
    --
    "a lot of people are better dead" - prisoner KSC2-303

  3. Originally Posted by aedipuss View Post
    sounds more like you've got a virus waiting to happen. if an mp4 says you have to do something odd to open it, that something will most likely infect your computer. encryption has to be removed before converting to mp4.
    No maybe I have not explained things. I have bought a program called CinDe HD to remove cinavia but it don't work on this 1 movie. It's been fine on other movies. But not on this .mp4 movie so was told it needs decryption 1st with passkey but it's really expensive. I just can't see what encryption does anyway

  4. Member
    Join Date
    Mar 2008
    Location
    United States
    Search Comp PM
    Can you play this "encrypted" mp4 in a regular media player? If yes, it's not encrypted.

    What is "passkey" ?

  5. Member
    Join Date
    Feb 2006
    Location
    United States
    Search Comp PM
    does the sound cut out at some point during the movie ?? if the movie does have cinavia then you can try dvdfab
    dvdfab has a free HD Decrypter that works on most movies.

  6. Member netmask56's Avatar
    Join Date
    Sep 2005
    Location
    Sydney, Australia
    Search Comp PM
    Originally Posted by davexnet View Post
    Can you play this "encrypted" mp4 in a regular media player? If yes, it's not encrypted.

    What is "passkey" ?
    DVDFab Passkey.



    OP: If you know how to post a MediaInfo report on the mp4 this should be of use to tell you what type of file it is..
    BeyonWiz T3 PVR ~ Popcorn A-500 ~ Samsung ES8000 65" LED TV ~ Windows 7 64bit ~ Yamaha RX-A1070 ~ QnapTS851-4G

  7. Member
    Join Date
    Mar 2008
    Location
    United States
    Search Comp PM
    Originally Posted by netmask56 View Post
    Originally Posted by davexnet View Post
    Can you play this "encrypted" mp4 in a regular media player? If yes, it's not encrypted.

    What is "passkey" ?
    DVDFab Passkey.



    OP: If you know how to post a MediaInfo report on the mp4 this should be of use to tell you what type of file it is..
    Perhaps I'm showing my ignorance, it's not an area I delve into much - in passkey similar to anydvd ?
    What bearing does it have on an mp4 as mentioned by the OP ?

  8. Member netmask56's Avatar
    Join Date
    Sep 2005
    Location
    Sydney, Australia
    Search Comp PM
    Passkey of course has no bearing on anything other than removing regional coding on DVD's and BD discs - clearly the OP doesn't yet have the skill set understanding. So the best we can do here is to assist him in a better understanding that's why many people come here for assistance, after all the name of this forum is VideoHelp.
    My guess is the MP4 is a fake or even malware who knows? Until a MediaInfo file report is published it's simply conjecture.
    BeyonWiz T3 PVR ~ Popcorn A-500 ~ Samsung ES8000 65" LED TV ~ Windows 7 64bit ~ Yamaha RX-A1070 ~ QnapTS851-4G

  9. Originally Posted by netmask56 View Post
    Passkey of course has no bearing on anything other than removing regional coding on DVD's and BD discs - clearly the OP doesn't yet have the skill set understanding. So the best we can do here is to assist him in a better understanding that's why many people come here for assistance, after all the name of this forum is VideoHelp.
    My guess is the MP4 is a fake or even malware who knows? Until a MediaInfo file report is published it's simply conjecture.
    ok here is MediaInfo on the movie in question

    Code:
    General
    Complete name                            : D:\downloads_D\movies\Insidious.The.Last.Key.2018.mp4
    Format                                   : MPEG-4
    Format profile                           : Base Media
    Codec ID                                 : isom (isom/iso2/avc1/mp41)
    File size                                : 993 MiB
    Duration                                 : 1 h 38 min
    Overall bit rate mode                    : Variable
    Overall bit rate                         : 1 403 kb/s
    Movie name                               : Insidious The Last Key (2018) 720P WEB-DL-X264-MP3-Cr@zyTribal
    Writing application                      : Lavf55.33.100
    
    Video
    ID                                       : 1
    Format                                   : AVC
    Format/Info                              : Advanced Video Codec
    Format profile                           : High@L3.1
    Format settings                          : CABAC / 5 Ref Frames
    Format settings, CABAC                   : Yes
    Format settings, RefFrames               : 5 frames
    Codec ID                                 : avc1
    Codec ID/Info                            : Advanced Video Coding
    Duration                                 : 1 h 38 min
    Bit rate                                 : 1 280 kb/s
    Width                                    : 1 280 pixels
    Height                                   : 720 pixels
    Display aspect ratio                     : 16:9
    Frame rate mode                          : Constant
    Frame rate                               : 23.976 (24000/1001) FPS
    Color space                              : YUV
    Chroma subsampling                       : 4:2:0
    Bit depth                                : 8 bits
    Scan type                                : Progressive
    Bits/(Pixel*Frame)                       : 0.058
    Stream size                              : 898 MiB (90%)
    Writing library                          : x264 core 148 r2643 5c65704
    Encoding settings                        : cabac=1 / ref=5 / deblock=1:0:0 / analyse=0x3:0x113 / me=hex / subme=7 / psy=1 / psy_rd=1.00:0.00 / mixed_ref=1 / me_range=16 / chroma_me=1 / trellis=1 / 8x8dct=1 / cqm=0 / deadzone=21,11 / fast_pskip=1 / chroma_qp_offset=-2 / threads=8 / lookahead_threads=8 / sliced_threads=1 / slices=8 / nr=0 / decimate=1 / interlaced=0 / bluray_compat=0 / constrained_intra=0 / bframes=0 / weightp=2 / keyint=250 / keyint_min=23 / scenecut=40 / intra_refresh=0 / rc=abr / mbtree=0 / bitrate=1280 / ratetol=1.0 / qcomp=0.60 / qpmin=0 / qpmax=69 / qpstep=4 / ip_ratio=1.40 / aq=1:1.00
    
    Audio
    ID                                       : 2
    Format                                   : AAC
    Format/Info                              : Advanced Audio Codec
    Format profile                           : LC
    Codec ID                                 : mp4a-40-2
    Duration                                 : 1 h 38 min
    Bit rate mode                            : Variable
    Bit rate                                 : 129 kb/s
    Maximum bit rate                         : 515 kb/s
    Channel(s)                               : 2 channels
    Channel positions                        : Front: L R
    Sampling rate                            : 44.1 kHz
    Frame rate                               : 43.066 FPS (1024 SPF)
    Compression mode                         : Lossy
    Stream size                              : 91.0 MiB (9%)
    Language                                 : English
    Default                                  : Yes
    Alternate group                          : 1

    I bought this utility called CinEx HD Utility http://cinexhd3.com/downloads/ which removes cinavia from movies, I use the program called CinDE shell extention which scans the movies for cinavia then if present use CinEx HD to remove it. so when i scanned the above movie it said cinavia present. so then I used CinEx HD to remove it, but it still said cinavia present. so i asked people i bought CinEx HD from and they said

    you have to use either Passkey or AnyDVDHD to remove decryptions make sure they are up to date

    they also said
    All movie titles have some sort of encryption
    so they are saying I need to use a decrypter on the movie so CinEx HD can remove the cinavia the decryptors clean the title up so we can produce a database to accurately remove Cinavia


    hope now all this makes sense

  10. Member
    Join Date
    Mar 2008
    Location
    Netherlands
    Search Comp PM
    Well.. it looks to me a pirate copy of a very recently movie!

    We don't discuss this kind of stuff here afaik!

  11. Originally Posted by jan5678 View Post
    Well.. it looks to me a pirate copy of a very recently movie!

    We don't discuss this kind of stuff here afaik!

    Well all this posting was a waste of my time. Im sure there is plenty of people here who post about pirate copies. this movie was given to me I didnt know it was pirated. I was asking about passkey and decryption, as I use CinEx HD to remove cinavia what this movie has

  12. Mod Neophyte Super Moderator redwudz's Avatar
    Join Date
    Sep 2002
    Location
    USA
    Search Comp PM
    Do not ask about warez on our site. Please read our rules before posting.

    Thread closed.


    Moderator redwudz




Similar Threads