VideoHelp Forum

Our website is made possible by displaying online advertisements to our visitors. Consider supporting us by disable your adblocker or buy Replay Video Capture or PlayON and record Netflix, HBO, etc! :)
+ Reply to Thread
Page 2 of 2
FirstFirst 1 2
Results 31 to 49 of 49
Thread
  1. Great...wonderful job.
    Quote Quote  
  2. Originally Posted by video.baba View Post
    2.0.0.0
    -Final release (for now).
    -No new additions since last beta, just code checks and tidy-up.
    @video.baba: great job, congrats. BOX4 v2.0.0.0 is really fast.

    I just find one problem with BOX4, when MKV/MP4 File is out of Sync,
    with another similar software I can fix it 'cause detect out-of-Sync condition or allows me manually advance o delay the Audio Track , and also change the video frame-rate (24/1001 fps, 25 fps, etc..)






    Insted using BOX4 I think those options aren't avaliable, right?
    So how can I fix an audio track Out-of-Sync with BOX4?








    Thanks.
    Last edited by Wolffy; 9th Apr 2018 at 17:27.
    Quote Quote  
  3. Any solution?
    Quote Quote  
  4. For example with this MKV file, I can not use BOX4,
    because the output file (MP4) it just gets Out Of Sync (26ms) with BOX4 there's no way to fix Audio Delay

    General
    Complete name : C:\Downloads\Deep State 1x01 HD.mkv
    Format : Matroska
    Format version : Version 2
    File size : 803 MiB
    Duration : 50 min 47 s
    Overall bit rate : 2 211 kb/s
    Encoded date : UTC 2018-04-10 00:29:27
    Writing application : mkvmerge v5.8.0 ('No Sleep / Pillow') built on Sep 2 2012 15:37:04
    Writing library : libebml v1.2.3 + libmatroska v1.3.0

    Video
    ID : 1
    Format : AVC
    Format/Info : Advanced Video Codec
    Format profile : Main@L4
    Format settings, CABAC : Yes
    Format settings, RefFrames : 4 frames
    Muxing mode : Header stripping
    Codec ID : V_MPEG4/ISO/AVC
    Duration : 50 min 47 s
    Bit rate : 1 943 kb/s
    Width : 1 280 pixels
    Height : 640 pixels
    Display aspect ratio : 2.000
    Frame rate mode : Constant
    Frame rate : 29.970 (30000/1001) FPS
    Color space : YUV
    Chroma subsampling : 4:2:0
    Bit depth : 8 bits
    Scan type : Progressive
    Bits/(Pixel*Frame) : 0.079
    Stream size : 706 MiB (88%)
    Default : Yes
    Forced : No
    Color range : Limited
    Color primaries : BT.709
    Transfer characteristics : BT.709
    Matrix coefficients : BT.709
    Statistics Tags Issue : mkvmerge v20.0.0 ('I Am The Sun') 64-bit 2018-04-09
    FromStats_BitRate : 1985505
    FromStats_Duration : 00:50:47.011000000
    FromStats_FrameCount : 91319
    FromStats_StreamSize : 756232271

    Audio
    ID : 2
    Format : AC-3
    Format/Info : Audio Coding 3
    Format settings, Endianness : Big
    Muxing mode : Header stripping
    Codec ID : A_AC3
    Duration : 50 min 47 s
    Bit rate mode : Constant
    Bit rate : 224 kb/s
    Channel(s) : 2 channels
    Channel positions : Front: L R
    Sampling rate : 48.0 kHz
    Frame rate : 31.250 FPS (1536 SPF)
    Bit depth : 16 bits
    Compression mode : Lossy
    Delay relative to video : 26 ms
    Stream size : 81.4 MiB (10%)
    Service kind : Complete Main
    Default : Yes
    Forced : No
    Statistics Tags Issue : mkvmerge v20.0.0 ('I Am The Sun') 64-bit 2018-04-09
    FromStats_BitRate : 223992
    FromStats_Duration : 00:50:46.892000000
    FromStats_FrameCount : 95212
    FromStats_StreamSize : 85309952
    Last edited by Wolffy; 12th Apr 2018 at 13:19.
    Quote Quote  
  5. Probably there's no solution to my Delay "problem"
    Last edited by Wolffy; 16th Apr 2018 at 03:51.
    Quote Quote  
  6. Could anyone help me in solving my doubts?
    Quote Quote  
  7. I don't see any problem. Delays are kept properly from what I can tell. (With container information. Using silence at least when re-encoding would be "nicer" but not a bug.)
    Quote Quote  
  8. Originally Posted by sneaker View Post
    I don't see any problem. Delays are kept properly from what I can tell. (With container information. Using silence at least when re-encoding would be "nicer" but not a bug.)
    I've tried but the MP4 output file gets out of sync
    Quote Quote  
  9. Maybe your file is broken. I don't think anyone can help you unless you upload the complete file (or at least enough to reproduce the problem). What I see from MediaInfo is that the audio is 10 seconds short but that doesn't necessarily mean anything. Also strange that mkvmerge v5.8.0 is the "writing application" but statistic tags where written by v20.0.0.
    Last edited by sneaker; 16th Apr 2018 at 11:32.
    Quote Quote  
  10. As you can see in the MediInfo, the mkv file is muxed

    29.970 fps
    Delay 26 ms

    Other softwares are able to detect and fix the Delay reltive to video,



    Box4 v2 is not able to detect Delay, so is not able to fix it.
    Last edited by Wolffy; 16th Apr 2018 at 13:31.
    Quote Quote  
  11. Originally Posted by Wolffy View Post
    Box4 v2 is not able to detect Delay
    Again: I cannot reproduce this. Also, 26ms would be hardly noticable anyways. Whatever your problem is, it's probably not about those 26ms.
    Quote Quote  
  12. Thanks for your reply.
    The only problem is a New Output file (MP4) Out of Sync

    MkvToMP4 let me change Delay and FPS





    I'm wondering if this options are ables with BOX4
    The Frame Rate is correct but I can't Apply Delay Relative to video (in this case the audio track is delayed by 26ms)
    Thing that is possible with other softwares. I really like BOX4 because it is much faster than the others... but
    so far I haven't been able to fix this "problem".
    Maybe this option could be able in the next beta

    Last edited by Wolffy; 16th Apr 2018 at 15:05.
    Quote Quote  
  13. This usually happens (Dealy) with files (MKV) that contain different languages,
    not with the original english audio, they almost never have Delay.
    Last edited by Wolffy; 16th Apr 2018 at 15:15.
    Quote Quote  
  14. Summing up, BOX4 V2 is not able today to solve the problem of the Delay with the archives of other countries (mkv with several languages)
    I hope creators take note and can solve it in future versions.

    Again, great software.
    Quote Quote  
  15. Originally Posted by Wolffy View Post
    Summing up, BOX4 V2 is not able today to solve the problem of the Delay with the archives of other countries (mkv with several languages)
    No, this is not true. Stop spreading misinformation. If you want your problem fixed upload a sample file. If not I suggest you stop posting.
    Quote Quote  
  16. Have you looked at MKVToolnix?
    Quote Quote  
  17. Originally Posted by sneaker View Post
    Originally Posted by Wolffy View Post
    Summing up, BOX4 V2 is not able today to solve the problem of the Delay with the archives of other countries (mkv with several languages)
    No, this is not true. Stop spreading misinformation. If you want your problem fixed upload a sample file. If not I suggest you stop posting.
    Ok. Sorry
    But happens with all Out of Sync files (MKV), there's no sense upload a sample file.

    Regards.
    Quote Quote  
  18. Originally Posted by TimA-C View Post
    Have you looked at MKVToolnix?
    Yes, in fact, it's the software that I use to correct the Delay after that, with this new MKV,
    Boxs4 works properly fine.

    Thanks
    Quote Quote  
  19. Strange issue I can't seem to figure out. Once I convert a movie to mkv and apply d.a.n. when playing the file in plex, rewind or skip backwards no longer works. Instead it skips forward when pressing skip back or rewind on the remote. I am playing the video using an nvidia shield and have tested by using the same video before running it through box4 and the rewind/skip back works properly. Has anyone else noticed this? Here are the settings I am using should it be of any use.
    Image Attached Thumbnails Click image for larger version

Name:	Capture.PNG
Views:	9
Size:	36.5 KB
ID:	45541  

    Quote Quote  



Similar Threads