VideoHelp Forum

Our website is made possible by displaying online advertisements to our visitors.
Consider supporting us by disable adblocker or buy Replay Video Capture or PlayON and record Netflix!
+ Reply to Thread
Results 1 to 7 of 7
Thread
  1. the nightly release does the same thing
    here is the error message:
    Problem signature:
    Problem Event Name: APPCRASH
    Application Name: HandBrake.exe
    Application Version: 1.0.7.0
    Application Timestamp: 58ea9d2f
    Fault Module Name: ntdll.dll
    Fault Module Version: 6.3.9600.18821
    Fault Module Timestamp: 59ba86db
    Exception Code: c0000005
    Exception Offset: 00000000000356cc
    OS Version: 6.3.9600.2.0.0.256.48
    Locale ID: 1033
    Additional Information 1: 4b67
    Additional Information 2: 4b67410fe6afcfff9ac242a258cbf30a
    Additional Information 3: c6fc
    Additional Information 4: c6fc07e72d9535cff16aa47b03f0c40c

    can anyone help?
    Quote Quote  
  2. what about older handbrake versions ?

    what about different source file (maybe problem with source file) ?
    Quote Quote  
  3. Member
    Join Date
    Mar 2008
    Location
    Netherlands
    Search Comp PM
    Fault Module Name: ntdll.dll
    This is a core part of Windows so maybe your problem lies in your Windows install?

    Does it crash immediately or when it runs a while?
    Quote Quote  
  4. It crashes about 3 seconds after I hit start.
    Quote Quote  
  5. On the bug tracker there are some similar reports, some related to the OpenCL resizer. Turn it off (video settings) and/or try latest nightly build (OpenCL resizer has been removed from nightly).

    https://github.com/HandBrake/HandBrake/issues/1091
    Quote Quote  
  6. Thank you, it works now
    Quote Quote  
  7. Member
    Join Date
    Mar 2011
    Location
    Oregon, US
    Search Comp PM
    HandBrake 1.0.7 (2017040900) - 64bit
    OS: Microsoft Windows NT 10.0.17120.0 - 64bit
    CPU: AMD A6-9220 RADEON R4, 5 COMPUTE CORES 2C+3G
    Ram: 3981 MB,
    GPU Information:
    AMD Radeon(TM) R4 Graphics - 22.19.180.1025
    Screen: 1366x768
    Temp Dir: W:\temp\
    Install Dir: D:\Videos\editor\handbrake
    Data Dir: C:\Users\jtm_7\AppData\Roaming\HandBrake Team\HandBrake\1.0.7.0

    -------------------------------------------


    # Starting Encode ...

    [09:10:37] hb_init: starting libhb thread

    # Failed to start encoding ...
    HandBrakeWPF.Exceptions.GeneralApplicationExceptio n: Exception of type 'HandBrakeWPF.Exceptions.GeneralApplicationExcepti on' was thrown.
    at HandBrakeWPF.Services.Encode.EncodeBase.VerifyEnco deDestinationPath(EncodeTask task) in C:\HandBrake\hbworkspace\workspace\Release_Windows Gui64\HandBrake\win\CS\HandBrakeWPF\Services\Encod e\EncodeBase.cs:line 216
    at HandBrakeWPF.Services.Encode.LibEncode.Start(Encod eTask task, HBConfiguration configuration) in C:\HandBrake\hbworkspace\workspace\Release_Windows Gui64\HandBrake\win\CS\HandBrakeWPF\Services\Encod e\LibEncode.cs:line 92

    [10:54:52] hb_init: starting libhb thread

    # Starting Scan ...

    [10:54:52] CPU:
    [10:54:52] - logical processor count: 2
    [10:54:52] Intel Quick Sync Video support: no
    [10:54:52] hb_scan: path=Z:\temp\Season 2, title_index=0
    src/libbluray/disc/disc.c:352: error opening file BDMV\index.bdmv
    src/libbluray/disc/disc.c:352: error opening file BDMV\BACKUP\index.bdmv
    [10:54:52] bd: not a bd - trying as a stream/file instead
    libdvdnav: Using dvdnav version 5.0.1
    libdvdread: Encrypted DVD support unavailable.
    libdvdread: Can't open Z:\temp\Season 2 for reading
    libdvdread: Device Z:\temp\Season 2 inaccessible, CSS authentication not available.
    libdvdreadVDOpenFilePath:findDVDFile /VIDEO_TS/VIDEO_TS.IFO failed
    libdvdreadVDOpenFilePath:findDVDFile /VIDEO_TS/VIDEO_TS.BUP failed
    libdvdread: Can't open file VIDEO_TS.IFO.
    libdvdnav: vm: failed to read VIDEO_TS.IFO
    [10:54:52] dvd: not a dvd - trying as a stream/file instead
    [10:54:52] batch: scanning Z:\temp\Season 2\The Man from U.N.C.L.E. - S 1 E 2 - The Iowa-Scuba.mp4
    Input #0, mov,mp4,m4a,3gp,3g2,mj2, from 'Z:\temp\Season 2\The Man from U.N.C.L.E. - S 1 E 2 - The Iowa-Scuba.mp4':
    Metadata:
    major_brand : isom
    minor_version : 512
    compatible_brands: isomiso2avc1mp41
    encoder : Lavf57.25.100
    Duration: 00:58:45.24, start: 0.046440, bitrate: 832 kb/s
    Stream #0:0(und): Video: h264 (High) [avc1 / 0x31637661]
    yuv420p, 848x480 [PAR 1:1 DAR 53:30], 697 kb/s
    25 fps, 12800 tbn (default)
    Metadata:
    handler_name : VideoHandler
    Stream #0:1(und): Audio: aac (LC) [mp4a / 0x6134706D]
    44100 Hz, stereo, fltp, 128 kb/s (default)
    Metadata:
    handler_name : SoundHandler
    [10:54:53] batch: scanning Z:\temp\Season 2\The Man from U.N.C.L.E. - S 1 E 3 - The Quadripartite.mp4
    Input #0, mov,mp4,m4a,3gp,3g2,mj2, from 'Z:\temp\Season 2\The Man from U.N.C.L.E. - S 1 E 3 - The Quadripartite.mp4':
    Metadata:
    major_brand : isom
    minor_version : 512
    compatible_brands: isomiso2avc1mp41
    encoder : Lavf57.25.100
    Duration: 00:58:50.88, start: 0.046440, bitrate: 832 kb/s
    Stream #0:0(und): Video: h264 (High) [avc1 / 0x31637661]
    yuv420p, 848x480 [PAR 1:1 DAR 53:30], 698 kb/s
    25 fps, 12800 tbn (default)
    Metadata:
    handler_name : VideoHandler
    Stream #0:1(und): Audio: aac (LC) [mp4a / 0x6134706D]
    44100 Hz, stereo, fltp, 128 kb/s (default)
    Metadata:
    handler_name : SoundHandler
    [10:54:53] batch: scanning Z:\temp\Season 2\The Man from U.N.C.L.E. - S 2 E 1 - Alexander the Greater.mp4
    Input #0, mov,mp4,m4a,3gp,3g2,mj2, from 'Z:\temp\Season 2\The Man from U.N.C.L.E. - S 2 E 1 - Alexander the Greater.mp4':
    Metadata:
    major_brand : isom
    minor_version : 512
    compatible_brands: isomiso2avc1mp41
    encoder : Lavf57.25.100
    Duration: 00:58:21.68, start: 0.046440, bitrate: 833 kb/s
    Stream #0:0(und): Video: h264 (High) [avc1 / 0x31637661]
    yuv420p, 848x480 [PAR 1:1 DAR 53:30], 698 kb/s
    25 fps, 12800 tbn (default)
    Metadata:
    handler_name : VideoHandler
    Stream #0:1(und): Audio: aac (LC) [mp4a / 0x6134706D]
    44100 Hz, stereo, fltp, 128 kb/s (default)
    Metadata:
    handler_name : SoundHandler
    [10:54:53] batch: scanning Z:\temp\Season 2\The Man from U.N.C.L.E. - S 2 E 10 - The Cherry Blossom.mp4
    Input #0, mov,mp4,m4a,3gp,3g2,mj2, from 'Z:\temp\Season 2\The Man from U.N.C.L.E. - S 2 E 10 - The Cherry Blossom.mp4':
    Metadata:
    major_brand : isom
    minor_version : 512
    compatible_brands: isomiso2avc1mp41
    encoder : Lavf57.25.100
    Duration: 00:58:18.64, start: 0.046440, bitrate: 832 kb/s
    Stream #0:0(und): Video: h264 (High) [avc1 / 0x31637661]
    yuv420p, 848x480 [PAR 1:1 DAR 53:30], 697 kb/s
    25 fps, 12800 tbn (default)
    Metadata:
    handler_name : VideoHandler
    Stream #0:1(und): Audio: aac (LC) [mp4a / 0x6134706D]
    44100 Hz, stereo, fltp, 128 kb/s (default)
    Metadata:
    handler_name : SoundHandler
    [10:54:53] batch: scanning Z:\temp\Season 2\The Man from U.N.C.L.E. - S 2 E 11 - The Virtue.mp4
    Input #0, mov,mp4,m4a,3gp,3g2,mj2, from 'Z:\temp\Season 2\The Man from U.N.C.L.E. - S 2 E 11 - The Virtue.mp4':
    Metadata:
    major_brand : isom
    minor_version : 512
    compatible_brands: isomiso2avc1mp41
    encoder : Lavf57.25.100
    Duration: 00:58:29.44, start: 0.046440, bitrate: 832 kb/s
    Stream #0:0(und): Video: h264 (High) [avc1 / 0x31637661]
    yuv420p, 848x480 [PAR 1:1 DAR 53:30], 698 kb/s
    25 fps, 12800 tbn (default)
    Metadata:
    handler_name : VideoHandler
    Stream #0:1(und): Audio: aac (LC) [mp4a / 0x6134706D]
    44100 Hz, stereo, fltp, 128 kb/s (default)
    Metadata:
    handler_name : SoundHandler
    [10:54:53] batch: scanning Z:\temp\Season 2\The Man from U.N.C.L.E. - S 2 E 12 - The Children's Day.mp4
    Input #0, mov,mp4,m4a,3gp,3g2,mj2, from 'Z:\temp\Season 2\The Man from U.N.C.L.E. - S 2 E 12 - The Children's Day.mp4':
    Metadata:
    major_brand : isom
    minor_version : 512
    compatible_brands: isomiso2avc1mp41
    encoder : Lavf57.25.100
    Duration: 00:58:30.60, start: 0.046440, bitrate: 832 kb/s
    Stream #0:0(und): Video: h264 (High) [avc1 / 0x31637661]
    yuv420p, 848x480 [PAR 1:1 DAR 53:30], 697 kb/s
    25 fps, 12800 tbn (default)
    Metadata:
    handler_name : VideoHandler
    Stream #0:1(und): Audio: aac (LC) [mp4a / 0x6134706D]
    44100 Hz, stereo, fltp, 128 kb/s (default)
    Metadata:
    handler_name : SoundHandler
    [10:54:53] batch: scanning Z:\temp\Season 2\The Man from U.N.C.L.E. - S 2 E 14 - The Yukon.mp4
    Input #0, mov,mp4,m4a,3gp,3g2,mj2, from 'Z:\temp\Season 2\The Man from U.N.C.L.E. - S 2 E 14 - The Yukon.mp4':
    Metadata:
    major_brand : isom
    minor_version : 512
    compatible_brands: isomiso2avc1mp41
    encoder : Lavf57.25.100
    Duration: 00:58:22.56, start: 0.046440, bitrate: 831 kb/s
    Stream #0:0(und): Video: h264 (High) [avc1 / 0x31637661]
    yuv420p, 848x480 [PAR 1:1 DAR 53:30], 696 kb/s
    25 fps, 12800 tbn (default)
    Metadata:
    handler_name : VideoHandler
    Stream #0:1(und): Audio: aac (LC) [mp4a / 0x6134706D]
    44100 Hz, stereo, fltp, 128 kb/s (default)
    Metadata:
    handler_name : SoundHandler
    [10:54:53] batch: scanning Z:\temp\Season 2\The Man from U.N.C.L.E. - S 2 E 16 - The Dippy Blonde.mp4
    Input #0, mov,mp4,m4a,3gp,3g2,mj2, from 'Z:\temp\Season 2\The Man from U.N.C.L.E. - S 2 E 16 - The Dippy Blonde.mp4':
    Metadata:
    major_brand : isom
    minor_version : 512
    compatible_brands: isomiso2avc1mp41
    encoder : Lavf57.25.100
    Duration: 00:58:25.80, start: 0.046440, bitrate: 831 kb/s
    Stream #0:0(und): Video: h264 (High) [avc1 / 0x31637661]
    yuv420p, 848x480 [PAR 1:1 DAR 53:30], 696 kb/s
    25 fps, 12800 tbn (default)
    Metadata:
    handler_name : VideoHandler
    Stream #0:1(und): Audio: aac (LC) [mp4a / 0x6134706D]
    44100 Hz, stereo, fltp, 128 kb/s (default)
    Metadata:
    handler_name : SoundHandler
    [10:54:53] batch: scanning Z:\temp\Season 2\The Man from U.N.C.L.E. - S 2 E 17 - The Deadly Goddess.mp4
    Input #0, mov,mp4,m4a,3gp,3g2,mj2, from 'Z:\temp\Season 2\The Man from U.N.C.L.E. - S 2 E 17 - The Deadly Goddess.mp4':
    Metadata:
    major_brand : isom
    minor_version : 512
    compatible_brands: isomiso2avc1mp41
    encoder : Lavf57.25.100
    Duration: 00:58:34.24, start: 0.046440, bitrate: 832 kb/s
    Stream #0:0(und): Video: h264 (High) [avc1 / 0x31637661]
    yuv420p, 848x480 [PAR 1:1 DAR 53:30], 697 kb/s
    25 fps, 12800 tbn (default)
    Metadata:
    handler_name : VideoHandler
    Stream #0:1(und): Audio: aac (LC) [mp4a / 0x6134706D]
    44100 Hz, stereo, fltp, 128 kb/s (default)
    Metadata:
    handler_name : SoundHandler
    [10:54:53] batch: scanning Z:\temp\Season 2\The Man from U.N.C.L.E. - S 2 E 18 - The Birds and the Bees.mp4
    Input #0, mov,mp4,m4a,3gp,3g2,mj2, from 'Z:\temp\Season 2\The Man from U.N.C.L.E. - S 2 E 18 - The Birds and the Bees.mp4':
    Metadata:
    major_brand : isom
    minor_version : 512
    compatible_brands: isomiso2avc1mp41
    encoder : Lavf57.25.100
    Duration: 00:58:30.36, start: 0.046440, bitrate: 833 kb/s
    Stream #0:0(und): Video: h264 (High) [avc1 / 0x31637661]
    yuv420p, 848x480 [PAR 1:1 DAR 53:30], 698 kb/s
    25 fps, 12800 tbn (default)
    Metadata:
    handler_name : VideoHandler
    Stream #0:1(und): Audio: aac (LC) [mp4a / 0x6134706D]
    44100 Hz, stereo, fltp, 128 kb/s (default)
    Metadata:
    handler_name : SoundHandler
    [10:54:53] batch: scanning Z:\temp\Season 2\The Man from U.N.C.L.E. - S 2 E 19 - The Waverly Ring.mp4
    Input #0, mov,mp4,m4a,3gp,3g2,mj2, from 'Z:\temp\Season 2\The Man from U.N.C.L.E. - S 2 E 19 - The Waverly Ring.mp4':
    Metadata:
    major_brand : isom
    minor_version : 512
    compatible_brands: isomiso2avc1mp41
    encoder : Lavf57.25.100
    Duration: 00:58:30.00, start: 0.046440, bitrate: 832 kb/s
    Stream #0:0(und): Video: h264 (High) [avc1 / 0x31637661]
    yuv420p, 848x480 [PAR 1:1 DAR 53:30], 697 kb/s
    25 fps, 12800 tbn (default)
    Metadata:
    handler_name : VideoHandler
    Stream #0:1(und): Audio: aac (LC) [mp4a / 0x6134706D]
    44100 Hz, stereo, fltp, 128 kb/s (default)
    Metadata:
    handler_name : SoundHandler
    [10:54:53] batch: scanning Z:\temp\Season 2\The Man from U.N.C.L.E. - S 2 E 2 - Alexander the Greater part ll.mp4
    Input #0, mov,mp4,m4a,3gp,3g2,mj2, from 'Z:\temp\Season 2\The Man from U.N.C.L.E. - S 2 E 2 - Alexander the Greater part ll.mp4':
    Metadata:
    major_brand : isom
    minor_version : 512
    compatible_brands: isomiso2avc1mp41
    encoder : Lavf57.25.100
    Duration: 00:58:22.32, start: 0.046440, bitrate: 833 kb/s
    Stream #0:0(und): Video: h264 (High) [avc1 / 0x31637661]
    yuv420p, 848x480 [PAR 1:1 DAR 53:30], 698 kb/s
    25 fps, 12800 tbn (default)
    Metadata:
    handler_name : VideoHandler
    Stream #0:1(und): Audio: aac (LC) [mp4a / 0x6134706D]
    44100 Hz, stereo, fltp, 128 kb/s (default)
    Metadata:
    handler_name : SoundHandler
    [10:54:53] batch: scanning Z:\temp\Season 2\The Man from U.N.C.L.E. - S 2 E 20 - The Bridge of Lions.mp4
    Input #0, mov,mp4,m4a,3gp,3g2,mj2, from 'Z:\temp\Season 2\The Man from U.N.C.L.E. - S 2 E 20 - The Bridge of Lions.mp4':
    Metadata:
    major_brand : isom
    minor_version : 512
    compatible_brands: isomiso2avc1mp41
    encoder : Lavf57.25.100
    Duration: 00:58:33.08, start: 0.046440, bitrate: 831 kb/s
    Stream #0:0(und): Video: h264 (High) [avc1 / 0x31637661]
    yuv420p, 848x480 [PAR 1:1 DAR 53:30], 697 kb/s
    25 fps, 12800 tbn (default)
    Metadata:
    handler_name : VideoHandler
    Stream #0:1(und): Audio: aac (LC) [mp4a / 0x6134706D]
    44100 Hz, stereo, fltp, 128 kb/s (default)
    Metadata:
    handler_name : SoundHandler
    [10:54:53] batch: scanning Z:\temp\Season 2\The Man from U.N.C.L.E. - S 2 E 21 - The Bridge of Lions ll.mp4
    Input #0, mov,mp4,m4a,3gp,3g2,mj2, from 'Z:\temp\Season 2\The Man from U.N.C.L.E. - S 2 E 21 - The Bridge of Lions ll.mp4':
    Metadata:
    major_brand : isom
    minor_version : 512
    compatible_brands: isomiso2avc1mp41
    encoder : Lavf57.25.100
    Duration: 00:58:31.44, start: 0.046440, bitrate: 831 kb/s
    Stream #0:0(und): Video: h264 (High) [avc1 / 0x31637661]
    yuv420p, 848x480 [PAR 1:1 DAR 53:30], 697 kb/s
    25 fps, 12800 tbn (default)
    Metadata:
    handler_name : VideoHandler
    Stream #0:1(und): Audio: aac (LC) [mp4a / 0x6134706D]
    44100 Hz, stereo, fltp, 128 kb/s (default)
    Metadata:
    handler_name : SoundHandler
    [10:54:53] batch: scanning Z:\temp\Season 2\The Man from U.N.C.L.E. - S 2 E 22 - The Foreign Legion.mp4
    Input #0, mov,mp4,m4a,3gp,3g2,mj2, from 'Z:\temp\Season 2\The Man from U.N.C.L.E. - S 2 E 22 - The Foreign Legion.mp4':
    Metadata:
    major_brand : isom
    minor_version : 512
    compatible_brands: isomiso2avc1mp41
    encoder : Lavf57.25.100
    Duration: 00:58:25.88, start: 0.046440, bitrate: 833 kb/s
    Stream #0:0(und): Video: h264 (High) [avc1 / 0x31637661]
    yuv420p, 848x480 [PAR 1:1 DAR 53:30], 698 kb/s
    25 fps, 12800 tbn (default)
    Metadata:
    handler_name : VideoHandler
    Stream #0:1(und): Audio: aac (LC) [mp4a / 0x6134706D]
    44100 Hz, stereo, fltp, 128 kb/s (default)
    Metadata:
    handler_name : SoundHandler
    [10:54:53] batch: scanning Z:\temp\Season 2\The Man from U.N.C.L.E. - S 2 E 23 - The Mooglow.mp4
    Input #0, mov,mp4,m4a,3gp,3g2,mj2, from 'Z:\temp\Season 2\The Man from U.N.C.L.E. - S 2 E 23 - The Mooglow.mp4':
    Metadata:
    major_brand : isom
    minor_version : 512
    compatible_brands: isomiso2avc1mp41
    encoder : Lavf57.25.100
    Duration: 00:58:49.56, start: 0.046440, bitrate: 832 kb/s
    Stream #0:0(und): Video: h264 (High) [avc1 / 0x31637661]
    yuv420p, 848x480 [PAR 1:1 DAR 53:30], 698 kb/s
    25 fps, 12800 tbn (default)
    Metadata:
    handler_name : VideoHandler
    Stream #0:1(und): Audio: aac (LC) [mp4a / 0x6134706D]
    44100 Hz, stereo, fltp, 128 kb/s (default)
    Metadata:
    handler_name : SoundHandler
    [10:54:53] batch: scanning Z:\temp\Season 2\The Man from U.N.C.L.E. - S 2 E 3 - The Ultimate Computer.mp4
    Input #0, mov,mp4,m4a,3gp,3g2,mj2, from 'Z:\temp\Season 2\The Man from U.N.C.L.E. - S 2 E 3 - The Ultimate Computer.mp4':
    Metadata:
    major_brand : isom
    minor_version : 512
    compatible_brands: isomiso2avc1mp41
    encoder : Lavf57.25.100
    Duration: 00:58:01.68, start: 0.046440, bitrate: 831 kb/s
    Stream #0:0(und): Video: h264 (High) [avc1 / 0x31637661]
    yuv420p, 848x480 [PAR 1:1 DAR 53:30], 697 kb/s
    25 fps, 12800 tbn (default)
    Metadata:
    handler_name : VideoHandler
    Stream #0:1(und): Audio: aac (LC) [mp4a / 0x6134706D]
    44100 Hz, stereo, fltp, 128 kb/s (default)
    Metadata:
    handler_name : SoundHandler
    [10:54:53] batch: scanning Z:\temp\Season 2\The Man from U.N.C.L.E. - S 2 E 4 - The Foxes and Hounds.mp4
    Input #0, mov,mp4,m4a,3gp,3g2,mj2, from 'Z:\temp\Season 2\The Man from U.N.C.L.E. - S 2 E 4 - The Foxes and Hounds.mp4':
    Metadata:
    major_brand : isom
    minor_version : 512
    compatible_brands: isomiso2avc1mp41
    encoder : Lavf57.25.100
    Duration: 00:58:27.40, start: 0.046440, bitrate: 831 kb/s
    Stream #0:0(und): Video: h264 (High) [avc1 / 0x31637661]
    yuv420p, 848x480 [PAR 1:1 DAR 53:30], 696 kb/s
    25 fps, 12800 tbn (default)
    Metadata:
    handler_name : VideoHandler
    Stream #0:1(und): Audio: aac (LC) [mp4a / 0x6134706D]
    44100 Hz, stereo, fltp, 128 kb/s (default)
    Metadata:
    handler_name : SoundHandler
    [10:54:53] batch: scanning Z:\temp\Season 2\The Man from U.N.C.L.E. - S 2 E 5 - The Discotheque.mp4
    Input #0, mov,mp4,m4a,3gp,3g2,mj2, from 'Z:\temp\Season 2\The Man from U.N.C.L.E. - S 2 E 5 - The Discotheque.mp4':
    Metadata:
    major_brand : isom
    minor_version : 512
    compatible_brands: isomiso2avc1mp41
    encoder : Lavf57.25.100
    Duration: 00:58:26.64, start: 0.046440, bitrate: 832 kb/s
    Stream #0:0(und): Video: h264 (High) [avc1 / 0x31637661]
    yuv420p, 848x480 [PAR 1:1 DAR 53:30], 698 kb/s
    25 fps, 12800 tbn (default)
    Metadata:
    handler_name : VideoHandler
    Stream #0:1(und): Audio: aac (LC) [mp4a / 0x6134706D]
    44100 Hz, stereo, fltp, 128 kb/s (default)
    Metadata:
    handler_name : SoundHandler
    [10:54:53] batch: scanning Z:\temp\Season 2\The Man from U.N.C.L.E. - S 2 E 6 - The Re-Collectors.mp4
    Input #0, mov,mp4,m4a,3gp,3g2,mj2, from 'Z:\temp\Season 2\The Man from U.N.C.L.E. - S 2 E 6 - The Re-Collectors.mp4':
    Metadata:
    major_brand : isom
    minor_version : 512
    compatible_brands: isomiso2avc1mp41
    encoder : Lavf57.25.100
    Duration: 00:58:10.64, start: 0.046440, bitrate: 833 kb/s
    Stream #0:0(und): Video: h264 (High) [avc1 / 0x31637661]
    yuv420p, 848x480 [PAR 1:1 DAR 53:30], 698 kb/s
    25 fps, 12800 tbn (default)
    Metadata:
    handler_name : VideoHandler
    Stream #0:1(und): Audio: aac (LC) [mp4a / 0x6134706D]
    44100 Hz, stereo, fltp, 128 kb/s (default)
    Metadata:
    handler_name : SoundHandler
    [10:54:53] batch: scanning Z:\temp\Season 2\The Man from U.N.C.L.E. - S 2 E 7 - The Arabian.mp4
    Input #0, mov,mp4,m4a,3gp,3g2,mj2, from 'Z:\temp\Season 2\The Man from U.N.C.L.E. - S 2 E 7 - The Arabian.mp4':
    Metadata:
    major_brand : isom
    minor_version : 512
    compatible_brands: isomiso2avc1mp41
    encoder : Lavf57.25.100
    Duration: 00:58:22.24, start: 0.046440, bitrate: 832 kb/s
    Stream #0:0(und): Video: h264 (High) [avc1 / 0x31637661]
    yuv420p, 848x480 [PAR 1:1 DAR 53:30], 698 kb/s
    25 fps, 12800 tbn (default)
    Metadata:
    handler_name : VideoHandler
    Stream #0:1(und): Audio: aac (LC) [mp4a / 0x6134706D]
    44100 Hz, stereo, fltp, 128 kb/s (default)
    Metadata:
    handler_name : SoundHandler
    [10:54:53] batch: scanning Z:\temp\Season 2\The Man from U.N.C.L.E. - S 2 E 8 - The Tigers Are Coming.mp4
    Input #0, mov,mp4,m4a,3gp,3g2,mj2, from 'Z:\temp\Season 2\The Man from U.N.C.L.E. - S 2 E 8 - The Tigers Are Coming.mp4':
    Metadata:
    major_brand : isom
    minor_version : 512
    compatible_brands: isomiso2avc1mp41
    encoder : Lavf57.25.100
    Duration: 00:58:31.28, start: 0.046440, bitrate: 832 kb/s
    Stream #0:0(und): Video: h264 (High) [avc1 / 0x31637661]
    yuv420p, 848x480 [PAR 1:1 DAR 53:30], 697 kb/s
    25 fps, 12800 tbn (default)
    Metadata:
    handler_name : VideoHandler
    Stream #0:1(und): Audio: aac (LC) [mp4a / 0x6134706D]
    44100 Hz, stereo, fltp, 128 kb/s (default)
    Metadata:
    handler_name : SoundHandler
    [10:54:54] batch: scanning Z:\temp\Season 2\The Man from U.N.C.L.E. - S 2 E 9.mp4
    Input #0, mov,mp4,m4a,3gp,3g2,mj2, from 'Z:\temp\Season 2\The Man from U.N.C.L.E. - S 2 E 9.mp4':
    Metadata:
    major_brand : isom
    minor_version : 512
    compatible_brands: isomiso2avc1mp41
    encoder : Lavf57.25.100
    Duration: 00:58:28.32, start: 0.046440, bitrate: 832 kb/s
    Stream #0:0(und): Video: h264 (High) [avc1 / 0x31637661]
    yuv420p, 848x480 [PAR 1:1 DAR 53:30], 698 kb/s
    25 fps, 12800 tbn (default)
    Metadata:
    handler_name : VideoHandler
    Stream #0:1(und): Audio: aac (LC) [mp4a / 0x6134706D]
    44100 Hz, stereo, fltp, 128 kb/s (default)
    Metadata:
    handler_name : SoundHandler
    [10:54:54] scan: decoding previews for title 1 (Z:\temp\Season 2\The Man from U.N.C.L.E. - S 1 E 2 - The Iowa-Scuba.mp4)
    [10:54:54] scan: audio 0x1: aac, rate=44100Hz, bitrate=128000 Unknown (AAC) (2.0 ch)
    [10:54:54] scan: 10 previews, 848x480, 25.000 fps, autocrop = 0/0/0/0, aspect 1.77:1, PAR 1:1
    [10:54:54] scan: supported video decoders: avcodec qsv
    [10:54:54] scan: decoding previews for title 2 (Z:\temp\Season 2\The Man from U.N.C.L.E. - S 1 E 3 - The Quadripartite.mp4)
    [10:54:54] scan: audio 0x1: aac, rate=44100Hz, bitrate=128000 Unknown (AAC) (2.0 ch)
    [10:54:54] scan: 10 previews, 848x480, 25.000 fps, autocrop = 0/0/0/0, aspect 1.77:1, PAR 1:1
    [10:54:54] scan: supported video decoders: avcodec qsv
    [10:54:54] scan: decoding previews for title 3 (Z:\temp\Season 2\The Man from U.N.C.L.E. - S 2 E 1 - Alexander the Greater.mp4)
    [10:54:54] scan: audio 0x1: aac, rate=44100Hz, bitrate=128000 Unknown (AAC) (2.0 ch)
    [10:54:55] scan: 10 previews, 848x480, 25.000 fps, autocrop = 0/0/0/0, aspect 1.77:1, PAR 1:1
    [10:54:55] scan: supported video decoders: avcodec qsv
    [10:54:55] scan: decoding previews for title 4 (Z:\temp\Season 2\The Man from U.N.C.L.E. - S 2 E 10 - The Cherry Blossom.mp4)
    [10:54:55] scan: audio 0x1: aac, rate=44100Hz, bitrate=128000 Unknown (AAC) (2.0 ch)
    [10:54:56] scan: 10 previews, 848x480, 25.000 fps, autocrop = 0/0/0/0, aspect 1.77:1, PAR 1:1
    [10:54:56] scan: supported video decoders: avcodec qsv
    [10:54:56] scan: decoding previews for title 5 (Z:\temp\Season 2\The Man from U.N.C.L.E. - S 2 E 11 - The Virtue.mp4)
    [10:54:56] scan: audio 0x1: aac, rate=44100Hz, bitrate=128000 Unknown (AAC) (2.0 ch)
    [10:54:56] scan: 10 previews, 848x480, 25.000 fps, autocrop = 0/0/0/0, aspect 1.77:1, PAR 1:1
    [10:54:56] scan: supported video decoders: avcodec qsv
    [10:54:56] scan: decoding previews for title 6 (Z:\temp\Season 2\The Man from U.N.C.L.E. - S 2 E 12 - The Children's Day.mp4)
    [10:54:56] scan: audio 0x1: aac, rate=44100Hz, bitrate=128000 Unknown (AAC) (2.0 ch)
    [10:54:56] scan: 10 previews, 848x480, 25.000 fps, autocrop = 0/0/0/0, aspect 1.77:1, PAR 1:1
    [10:54:56] scan: supported video decoders: avcodec qsv
    [10:54:56] scan: decoding previews for title 7 (Z:\temp\Season 2\The Man from U.N.C.L.E. - S 2 E 14 - The Yukon.mp4)
    [10:54:56] scan: audio 0x1: aac, rate=44100Hz, bitrate=128000 Unknown (AAC) (2.0 ch)
    [10:54:57] scan: 10 previews, 848x480, 25.000 fps, autocrop = 0/0/0/0, aspect 1.77:1, PAR 1:1
    [10:54:57] scan: supported video decoders: avcodec qsv
    [10:54:57] scan: decoding previews for title 8 (Z:\temp\Season 2\The Man from U.N.C.L.E. - S 2 E 16 - The Dippy Blonde.mp4)
    [10:54:57] scan: audio 0x1: aac, rate=44100Hz, bitrate=128000 Unknown (AAC) (2.0 ch)
    [10:54:58] scan: 10 previews, 848x480, 25.000 fps, autocrop = 0/0/0/0, aspect 1.77:1, PAR 1:1
    [10:54:58] scan: supported video decoders: avcodec qsv
    [10:54:58] scan: decoding previews for title 9 (Z:\temp\Season 2\The Man from U.N.C.L.E. - S 2 E 17 - The Deadly Goddess.mp4)
    [10:54:58] scan: audio 0x1: aac, rate=44100Hz, bitrate=128000 Unknown (AAC) (2.0 ch)
    [10:54:58] scan: 10 previews, 848x480, 25.000 fps, autocrop = 0/0/0/0, aspect 1.77:1, PAR 1:1
    [10:54:58] scan: supported video decoders: avcodec qsv
    [10:54:58] scan: decoding previews for title 10 (Z:\temp\Season 2\The Man from U.N.C.L.E. - S 2 E 18 - The Birds and the Bees.mp4)
    [10:54:58] scan: audio 0x1: aac, rate=44100Hz, bitrate=128000 Unknown (AAC) (2.0 ch)
    [10:54:58] scan: 10 previews, 848x480, 25.000 fps, autocrop = 0/0/0/0, aspect 1.77:1, PAR 1:1
    [10:54:58] scan: supported video decoders: avcodec qsv
    [10:54:58] scan: decoding previews for title 11 (Z:\temp\Season 2\The Man from U.N.C.L.E. - S 2 E 19 - The Waverly Ring.mp4)
    [10:54:58] scan: audio 0x1: aac, rate=44100Hz, bitrate=128000 Unknown (AAC) (2.0 ch)
    [10:54:59] scan: 10 previews, 848x480, 25.000 fps, autocrop = 0/0/0/0, aspect 1.77:1, PAR 1:1
    [10:54:59] scan: supported video decoders: avcodec qsv
    [10:54:59] scan: decoding previews for title 12 (Z:\temp\Season 2\The Man from U.N.C.L.E. - S 2 E 2 - Alexander the Greater part ll.mp4)
    [10:54:59] scan: audio 0x1: aac, rate=44100Hz, bitrate=128000 Unknown (AAC) (2.0 ch)
    [10:54:59] scan: 10 previews, 848x480, 25.000 fps, autocrop = 0/0/0/0, aspect 1.77:1, PAR 1:1
    [10:54:59] scan: supported video decoders: avcodec qsv
    [10:54:59] scan: decoding previews for title 13 (Z:\temp\Season 2\The Man from U.N.C.L.E. - S 2 E 20 - The Bridge of Lions.mp4)
    [10:54:59] scan: audio 0x1: aac, rate=44100Hz, bitrate=128000 Unknown (AAC) (2.0 ch)
    [10:54:59] scan: 10 previews, 848x480, 25.000 fps, autocrop = 0/0/0/0, aspect 1.77:1, PAR 1:1
    [10:54:59] scan: supported video decoders: avcodec qsv
    [10:54:59] scan: decoding previews for title 14 (Z:\temp\Season 2\The Man from U.N.C.L.E. - S 2 E 21 - The Bridge of Lions ll.mp4)
    [10:54:59] scan: audio 0x1: aac, rate=44100Hz, bitrate=128000 Unknown (AAC) (2.0 ch)
    [10:55:00] scan: 10 previews, 848x480, 25.000 fps, autocrop = 0/0/0/0, aspect 1.77:1, PAR 1:1
    [10:55:00] scan: supported video decoders: avcodec qsv
    [10:55:00] scan: decoding previews for title 15 (Z:\temp\Season 2\The Man from U.N.C.L.E. - S 2 E 22 - The Foreign Legion.mp4)
    [10:55:00] scan: audio 0x1: aac, rate=44100Hz, bitrate=128000 Unknown (AAC) (2.0 ch)
    [10:55:00] scan: 10 previews, 848x480, 25.000 fps, autocrop = 0/0/0/0, aspect 1.77:1, PAR 1:1
    [10:55:00] scan: supported video decoders: avcodec qsv
    [10:55:00] scan: decoding previews for title 16 (Z:\temp\Season 2\The Man from U.N.C.L.E. - S 2 E 23 - The Mooglow.mp4)
    [10:55:00] scan: audio 0x1: aac, rate=44100Hz, bitrate=128000 Unknown (AAC) (2.0 ch)
    [10:55:01] scan: 10 previews, 848x480, 25.000 fps, autocrop = 0/0/0/0, aspect 1.77:1, PAR 1:1
    [10:55:01] scan: supported video decoders: avcodec qsv
    [10:55:01] scan: decoding previews for title 17 (Z:\temp\Season 2\The Man from U.N.C.L.E. - S 2 E 3 - The Ultimate Computer.mp4)
    [10:55:01] scan: audio 0x1: aac, rate=44100Hz, bitrate=128000 Unknown (AAC) (2.0 ch)
    [10:55:01] scan: 10 previews, 848x480, 25.000 fps, autocrop = 0/0/0/0, aspect 1.77:1, PAR 1:1
    [10:55:01] scan: supported video decoders: avcodec qsv
    [10:55:01] scan: decoding previews for title 18 (Z:\temp\Season 2\The Man from U.N.C.L.E. - S 2 E 4 - The Foxes and Hounds.mp4)
    [10:55:01] scan: audio 0x1: aac, rate=44100Hz, bitrate=128000 Unknown (AAC) (2.0 ch)
    [10:55:02] scan: 10 previews, 848x480, 25.000 fps, autocrop = 0/0/0/0, aspect 1.77:1, PAR 1:1
    [10:55:02] scan: supported video decoders: avcodec qsv
    [10:55:02] scan: decoding previews for title 19 (Z:\temp\Season 2\The Man from U.N.C.L.E. - S 2 E 5 - The Discotheque.mp4)
    [10:55:02] scan: audio 0x1: aac, rate=44100Hz, bitrate=128000 Unknown (AAC) (2.0 ch)
    [10:55:02] scan: 10 previews, 848x480, 25.000 fps, autocrop = 0/0/0/0, aspect 1.77:1, PAR 1:1
    [10:55:02] scan: supported video decoders: avcodec qsv
    [10:55:02] scan: decoding previews for title 20 (Z:\temp\Season 2\The Man from U.N.C.L.E. - S 2 E 6 - The Re-Collectors.mp4)
    [10:55:02] scan: audio 0x1: aac, rate=44100Hz, bitrate=128000 Unknown (AAC) (2.0 ch)
    [10:55:03] scan: 10 previews, 848x480, 25.000 fps, autocrop = 0/0/0/0, aspect 1.77:1, PAR 1:1
    [10:55:03] scan: supported video decoders: avcodec qsv
    [10:55:03] scan: decoding previews for title 21 (Z:\temp\Season 2\The Man from U.N.C.L.E. - S 2 E 7 - The Arabian.mp4)
    [10:55:03] scan: audio 0x1: aac, rate=44100Hz, bitrate=128000 Unknown (AAC) (2.0 ch)
    [10:55:03] scan: 10 previews, 848x480, 25.000 fps, autocrop = 0/0/0/0, aspect 1.77:1, PAR 1:1
    [10:55:03] scan: supported video decoders: avcodec qsv
    [10:55:03] scan: decoding previews for title 22 (Z:\temp\Season 2\The Man from U.N.C.L.E. - S 2 E 8 - The Tigers Are Coming.mp4)
    [10:55:03] scan: audio 0x1: aac, rate=44100Hz, bitrate=128000 Unknown (AAC) (2.0 ch)
    [10:55:04] scan: 10 previews, 848x480, 25.000 fps, autocrop = 0/0/0/0, aspect 1.77:1, PAR 1:1
    [10:55:04] scan: supported video decoders: avcodec qsv
    [10:55:04] scan: decoding previews for title 23 (Z:\temp\Season 2\The Man from U.N.C.L.E. - S 2 E 9.mp4)
    [10:55:04] scan: audio 0x1: aac, rate=44100Hz, bitrate=128000 Unknown (AAC) (2.0 ch)
    [10:55:04] scan: 10 previews, 848x480, 25.000 fps, autocrop = 0/0/0/0, aspect 1.77:1, PAR 1:1
    [10:55:04] scan: supported video decoders: avcodec qsv
    [10:55:04] libhb: scan thread found 23 valid title(s)

    # Scan Finished ...

    I just sent the hANDBRAKE 1.0.7 log files it throws an error when I go to encode??? SHould i try an older version? Vidcoder? John
    Quote Quote  



Similar Threads