VideoHelp Forum

Our website is made possible by displaying online advertisements to our visitors. Consider supporting us by disable your adblocker or Try ConvertXtoDVD and convert all your movies to DVD. Free trial ! :)
+ Reply to Thread
Results 1 to 4 of 4
Thread
  1. Hi everyone.

    I have the MKV file with the following audio streams:

    stream1: English 5.1 AAC
    stream2: English 2.0 AAC
    stream3: Japanese mono AC3

    I'm trying to auto-select/add only the Japanese audio when I load the video. To achieve this, I've configured audio defaults for my custom preset to select Japanese only (see screenshot below).

    My problem is that when I load my video, both the English 5.1 and the Japanese one were automatically included.

    things I've tried:
    • If I removed all the auto-selected tracks and use "Add all remaining selected tracks", it will pick the Japanese audio stream only.
    • On Track Selection Behavior, I've tried "First matching" and "All matching"
    • I've changed the chosen language from Japanese to English. I then reopened the file and only the English 5.1 was added. The English stereo and Japanese audio were both ignored.
    • On the "For additional tracks" setting (it's below Track selection behavior), I've tried all 3 and it doesn't make a difference.
    • I've tried other videos with English 5.1 stream and Japanese stereo audio streams, both streams were selected.

    addition info:
    • I'm using a custom preset
    • in all my testing, I never closed and then reopened handbrake.

    Not sure what i'm doing wrong. Can you please help?

    Thanks a lot!

    screenshots:
    https://i.imgur.com/ln6ZVTdg.png (setting audio defaults)
    https://i.imgur.com/ufDiPCh.png (selected streams)

    activity log:
    Code:
     # Starting Scan ...
    
    [00:16:07] CPU: Intel(R) Xeon(R) CPU E5-2650L 0 @ 1.80GHz
    [00:16:07]  - Intel microarchitecture Sandy Bridge
    [00:16:07]  - logical processor count: 32
    [00:16:07] Intel Quick Sync Video support: no
    [00:16:07] hb_scan: path=D:\temp\videos\abc.mkv, title_index=0
    udfread ERROR: ECMA 167 Volume Recognition failed
    src/libbluray/disc/disc.c:274: failed opening UDF image D:\temp\videos\abc.mkv
    src/libbluray/disc/disc.c:352: error opening file BDMV\index.bdmv
    src/libbluray/disc/disc.c:352: error opening file BDMV\BACKUP\index.bdmv
    [00:16:07] bd: not a bd - trying as a stream/file instead
    libdvdnav: Using dvdnav version 5.0.1
    libdvdread: Encrypted DVD support unavailable.
    libdvdread:DVDOpenFileUDF:UDFFindFile /VIDEO_TS/VIDEO_TS.IFO failed
    libdvdread:DVDOpenFileUDF:UDFFindFile /VIDEO_TS/VIDEO_TS.BUP failed
    libdvdread: Can't open file VIDEO_TS.IFO.
    libdvdnav: vm: failed to read VIDEO_TS.IFO
    [00:16:07] dvd: not a dvd - trying as a stream/file instead
    Input #0, matroska,webm, from 'D:\temp\videos\abc.mkv':
      Duration: 00:24:13.52, start: 0.000000, bitrate: N/A
        Stream #0:0: Video: h264 (High)
          yuv420p, 1920x1080 [PAR 1:1 DAR 16:9], PAR 1:1 DAR 16:9
          23.98 fps, 1k tbn (default)
        Stream #0:1(eng): Audio: aac (LC)
          48000 Hz, 5.1, fltp (default)
        Metadata:
          title           : ENG+JAP MUSIC
        Stream #0:2(eng): Audio: aac (LC)
          48000 Hz, stereo, fltp
        Metadata:
          title           : ENG+ENG MUSIC
        Stream #0:3(jpn): Audio: ac3
          48000 Hz, mono, fltp, 96 kb/s
        Metadata:
          title           : JAP
        Stream #0:4(eng): Subtitle: hdmv_pgs_subtitle
    [00:16:07] scan: decoding previews for title 1
    [00:16:07] scan: audio 0x1: aac, rate=48000Hz, bitrate=1 English (AAC) (5.1 ch)
    [00:16:07] scan: audio 0x2: aac, rate=48000Hz, bitrate=1 English (AAC) (2.0 ch)
    [00:16:07] scan: audio 0x3: ac3, rate=48000Hz, bitrate=96000 ??? (AC3) (1.0 ch)
    [00:16:08] scan: 10 previews, 1920x1080, 23.976 fps, autocrop = 0/0/0/0, aspect 16:9, PAR 1:1
    [00:16:08] scan: supported video decoders: avcodec qsv
    [00:16:08] libhb: scan thread found 1 valid title(s)
    
     # Scan Finished ...
    Last edited by mrjayviper; 6th Jan 2018 at 21:35.
    Quote Quote  
  2. Member Bernix's Avatar
    Join Date
    Apr 2016
    Location
    Europe
    Search Comp PM
    Sorry my fault.
    EDIT:First means it choose first matched language you have selected if eng so eng5.1
    Try all and specify language to jpn. It should select all matched jpn taged track.

    Bernix
    Last edited by Bernix; 6th Jan 2018 at 19:09. Reason: was wrong
    Quote Quote  
  3. Originally Posted by Bernix View Post
    Sorry my fault.
    EDIT:First means it choose first matched language you have selected if eng so eng5.1
    Try all and specify language to jpn. It should select all matched jpn taged track.

    Bernix
    Thanks for the reply.

    if you click on the screenshots, I've configured audio defaults to select Japanese only.
    Quote Quote  
  4. Looks like a bug to me. Get latest nightly.
    Quote Quote  



Similar Threads