VideoHelp Forum

Our website is made possible by displaying online advertisements to our visitors. Consider supporting us by disable your adblocker or Try ConvertXtoDVD and convert all your movies to DVD. Free trial ! :)
+ Reply to Thread
Results 1 to 5 of 5
Thread
  1. i have lot of movies in 1080p x265 and want to play in 4k led tv via USB in future, because currently i have 1080p HD LED TV of Sony.

    i am interested in buying Soy KD 43x7000e model.
    i think this model is 4k and supports HEVC.

    http://www.sony-mea.com/en/electronics/televisions/x7000e-series

    i want to play this type of movies :

    Code:
    General
    Unique ID                   : 192818495740983208961193099993286618141 (0x910F7DD17F53D9409B84DF01915EAC1D)
    Complete name               : ********* 200* 10th Anniv (1080p x265 10bit Tigole).mkv
    Format                      : Matroska
    Format version              : Version 4 / Version 2
    File size                   : 3.51 GiB
    Duration                    : 2 h 34 min
    Overall bit rate            : 3 240 kb/s
    Movie name                  : Gladiator
    Encoded date                : UTC 2016-09-15 02:27:28
    Writing application         : mkvmerge v9.4.0 ('Knurl') 64bit
    Writing library             : libebml v1.3.4 + libmatroska v1.4.5
    
    Video
    ID                          : 1
    Format                      : HEVC
    Format/Info                 : High Efficiency Video Coding
    Format profile              : Main 10@L4@Main
    Codec ID                    : V_MPEGH/ISO/HEVC
    Duration                    : 2 h 34 min
    Bit rate                    : 2 726 kb/s
    Width                       : 1 920 pixels
    Height                      : 816 pixels
    Display aspect ratio        : 2.35:1
    Frame rate mode             : Constant
    Frame rate                  : 23.976 (24000/1001) FPS
    Color space                 : YUV
    Chroma subsampling          : 4:2:0
    Bit depth                   : 10 bits
    Bits/(Pixel*Frame)          : 0.073
    Stream size                 : 2.95 GiB (84%)
    Writing library             : x265 2.0+16-215eedc9ecc0:[Windows][GCC 6.1.0][64 bit] 10bit
    Encoding settings           : wpp / ctu=64 / min-cu-size=8 / max-tu-size=32 / tu-intra-depth=1 / tu-inter-depth=1 / me=1 / subme=2 / merange=57 / no-rect / no-amp / max-merge=2 / temporal-mvp / no-early-skip / rskip / rdpenalty=0 / no-tskip / no-tskip-fast / strong-intra-smoothing / no-lossless / no-cu-lossless / no-constrained-intra / no-fast-intra / open-gop / no-temporal-layers / interlace=0 / keyint=250 / min-keyint=23 / scenecut=40 / rc-lookahead=20 / lookahead-slices=5 / bframes=4 / bframe-bias=0 / b-adapt=2 / ref=3 / limit-refs=3 / no-limit-modes / weightp / no-weightb / aq-mode=1 / qg-size=32 / aq-strength=1.00 / cbqpoffs=0 / crqpoffs=0 / rd=3 / psy-rd=2.00 / rdoq-level=0 / psy-rdoq=0.00 / log2-max-poc-lsb=8 / no-rd-refine / signhide / deblock=0:0 / sao / no-sao-non-deblock / b-pyramid / cutree / no-intra-refresh / rc=2 / pass / bitrate=2725 / qcomp=0.60 / qpmin=0 / qpmax=69 / qpstep=4 / cplxblur=20.0 / qblur=0.5 / ipratio=1.40 / pbratio=1.30
    Default                     : Yes
    Forced                      : No
    
    Audio #1
    ID                          : 2
    Format                      : AAC
    Format/Info                 : Advanced Audio Codec
    Format profile              : LC
    Codec ID                    : A_AAC-2
    Duration                    : 2 h 34 min
    Bit rate                    : 353 kb/s
    Channel(s)                  : 6 channels
    Channel positions           : Front: L C R, Side: L R, LFE
    Sampling rate               : 48.0 kHz
    Frame rate                  : 46.875 FPS (1024 SPF)
    Compression mode            : Lossy
    Delay relative to video     : 20 ms
    Stream size                 : 391 MiB (11%)
    Language                    : English
    Default                     : Yes
    Forced                      : No
    
    Audio #2
    ID                          : 3
    Format                      : AAC
    Format/Info                 : Advanced Audio Codec
    Format profile              : HE-AAC / LC
    Format settings             : Explicit
    Codec ID                    : A_AAC-2
    Duration                    : 2 h 34 min
    Bit rate                    : 54.3 kb/s
    Channel(s)                  : 2 channels
    Channel positions           : Front: L R
    Sampling rate               : 48.0 kHz / 24.0 kHz
    Frame rate                  : 23.438 FPS (1024 SPF)
    Compression mode            : Lossy
    Delay relative to video     : 31 ms
    Stream size                 : 60.2 MiB (2%)
    Title                       : Commentary - Ridley Scott & Pietro Scalia
    Language                    : English
    Default                     : No
    Forced                      : No
    
    Text #1
    ID                          : 4
    Format                      : VobSub
    Muxing mode                 : zlib
    Codec ID                    : S_VOBSUB
    Codec ID/Info               : Picture based subtitle format used on DVDs
    Duration                    : 2 h 25 min
    Bit rate                    : 4 444 b/s
    Count of elements           : 1491
    Stream size                 : 4.62 MiB (0%)
    Language                    : English
    Default                     : No
    Forced                      : No
    
    Text #2
    ID                          : 5
    Format                      : VobSub
    Muxing mode                 : zlib
    Codec ID                    : S_VOBSUB
    Codec ID/Info               : Picture based subtitle format used on DVDs
    Duration                    : 2 h 29 min
    Bit rate                    : 11.5 kb/s
    Count of elements           : 2279
    Stream size                 : 12.3 MiB (0%)
    Title                       : Commentary
    Language                    : English
    Default                     : No
    Forced                      : No
    
    Text #3
    ID                          : 6
    Format                      : VobSub
    Muxing mode                 : zlib
    Codec ID                    : S_VOBSUB
    Codec ID/Info               : Picture based subtitle format used on DVDs
    Duration                    : 2 h 29 min
    Bit rate                    : 3 841 b/s
    Count of elements           : 1225
    Stream size                 : 4.10 MiB (0%)
    Language                    : French
    Default                     : No
    Forced                      : No
    
    Text #4
    ID                          : 7
    Format                      : VobSub
    Muxing mode                 : zlib
    Codec ID                    : S_VOBSUB
    Codec ID/Info               : Picture based subtitle format used on DVDs
    Duration                    : 2 h 29 min
    Bit rate                    : 9 992 b/s
    Count of elements           : 2280
    Stream size                 : 10.7 MiB (0%)
    Title                       : Commentary
    Language                    : French
    Default                     : No
    Forced                      : No
    
    Text #5
    ID                          : 8
    Format                      : VobSub
    Muxing mode                 : zlib
    Codec ID                    : S_VOBSUB
    Codec ID/Info               : Picture based subtitle format used on DVDs
    Duration                    : 2 h 29 min
    Bit rate                    : 3 563 b/s
    Count of elements           : 1226
    Stream size                 : 3.81 MiB (0%)
    Language                    : Italian
    Default                     : No
    Forced                      : No
    
    Text #6
    ID                          : 9
    Format                      : VobSub
    Muxing mode                 : zlib
    Codec ID                    : S_VOBSUB
    Codec ID/Info               : Picture based subtitle format used on DVDs
    Duration                    : 2 h 29 min
    Bit rate                    : 9 614 b/s
    Count of elements           : 2280
    Stream size                 : 10.3 MiB (0%)
    Title                       : Commentary
    Language                    : Italian
    Default                     : No
    Forced                      : No
    
    Text #7
    ID                          : 10
    Format                      : VobSub
    Muxing mode                 : zlib
    Codec ID                    : S_VOBSUB
    Codec ID/Info               : Picture based subtitle format used on DVDs
    Duration                    : 2 h 29 min
    Bit rate                    : 4 106 b/s
    Count of elements           : 1224
    Stream size                 : 4.39 MiB (0%)
    Language                    : German
    Default                     : No
    Forced                      : No
    
    Text #8
    ID                          : 11
    Format                      : VobSub
    Muxing mode                 : zlib
    Codec ID                    : S_VOBSUB
    Codec ID/Info               : Picture based subtitle format used on DVDs
    Duration                    : 2 h 29 min
    Bit rate                    : 11.3 kb/s
    Count of elements           : 2279
    Stream size                 : 12.0 MiB (0%)
    Title                       : Commentary
    Language                    : German
    Default                     : No
    Forced                      : No
    
    Text #9
    ID                          : 12
    Format                      : VobSub
    Muxing mode                 : zlib
    Codec ID                    : S_VOBSUB
    Codec ID/Info               : Picture based subtitle format used on DVDs
    Duration                    : 2 h 29 min
    Bit rate                    : 60 b/s
    Count of elements           : 12
    Stream size                 : 66.1 KiB (0%)
    Title                       : Forced
    Language                    : German
    Default                     : No
    Forced                      : No
    
    Text #10
    ID                          : 13
    Format                      : VobSub
    Muxing mode                 : zlib
    Codec ID                    : S_VOBSUB
    Codec ID/Info               : Picture based subtitle format used on DVDs
    Duration                    : 2 h 29 min
    Bit rate                    : 3 813 b/s
    Count of elements           : 1221
    Stream size                 : 4.07 MiB (0%)
    Language                    : Spanish
    Default                     : No
    Forced                      : No
    
    Text #11
    ID                          : 14
    Format                      : VobSub
    Muxing mode                 : zlib
    Codec ID                    : S_VOBSUB
    Codec ID/Info               : Picture based subtitle format used on DVDs
    Duration                    : 2 h 29 min
    Bit rate                    : 10.6 kb/s
    Count of elements           : 2279
    Stream size                 : 11.3 MiB (0%)
    Title                       : Commentary
    Language                    : Spanish
    Default                     : No
    Forced                      : No
    
    Text #12
    ID                          : 15
    Format                      : VobSub
    Muxing mode                 : zlib
    Codec ID                    : S_VOBSUB
    Codec ID/Info               : Picture based subtitle format used on DVDs
    Duration                    : 2 h 29 min
    Bit rate                    : 3 562 b/s
    Count of elements           : 1228
    Stream size                 : 3.80 MiB (0%)
    Language                    : Portuguese
    Default                     : No
    Forced                      : No
    
    Text #13
    ID                          : 16
    Format                      : VobSub
    Muxing mode                 : zlib
    Codec ID                    : S_VOBSUB
    Codec ID/Info               : Picture based subtitle format used on DVDs
    Duration                    : 2 h 29 min
    Bit rate                    : 9 975 b/s
    Count of elements           : 2279
    Stream size                 : 10.6 MiB (0%)
    Title                       : Commentary
    Language                    : Portuguese
    Default                     : No
    Forced                      : No
    
    Text #14
    ID                          : 17
    Format                      : VobSub
    Muxing mode                 : zlib
    Codec ID                    : S_VOBSUB
    Codec ID/Info               : Picture based subtitle format used on DVDs
    Duration                    : 2 h 29 min
    Bit rate                    : 3 374 b/s
    Count of elements           : 1225
    Stream size                 : 3.60 MiB (0%)
    Language                    : Dutch
    Default                     : No
    Forced                      : No
    
    Text #15
    ID                          : 18
    Format                      : VobSub
    Muxing mode                 : zlib
    Codec ID                    : S_VOBSUB
    Codec ID/Info               : Picture based subtitle format used on DVDs
    Duration                    : 2 h 29 min
    Bit rate                    : 3 715 b/s
    Count of elements           : 1224
    Stream size                 : 3.97 MiB (0%)
    Language                    : Danish
    Default                     : No
    Forced                      : No
    
    Text #16
    ID                          : 19
    Format                      : VobSub
    Muxing mode                 : zlib
    Codec ID                    : S_VOBSUB
    Codec ID/Info               : Picture based subtitle format used on DVDs
    Duration                    : 2 h 29 min
    Bit rate                    : 3 436 b/s
    Count of elements           : 1225
    Stream size                 : 3.67 MiB (0%)
    Language                    : Finnish
    Default                     : No
    Forced                      : No
    
    Text #17
    ID                          : 20
    Format                      : VobSub
    Muxing mode                 : zlib
    Codec ID                    : S_VOBSUB
    Codec ID/Info               : Picture based subtitle format used on DVDs
    Duration                    : 2 h 29 min
    Bit rate                    : 3 601 b/s
    Count of elements           : 1227
    Stream size                 : 3.85 MiB (0%)
    Language                    : Norwegian Bokmal
    Default                     : No
    Forced                      : No
    
    Text #18
    ID                          : 21
    Format                      : VobSub
    Muxing mode                 : zlib
    Codec ID                    : S_VOBSUB
    Codec ID/Info               : Picture based subtitle format used on DVDs
    Duration                    : 2 h 29 min
    Bit rate                    : 3 583 b/s
    Count of elements           : 1222
    Stream size                 : 3.83 MiB (0%)
    Language                    : Swedish
    Default                     : No
    Forced                      : No
    
    Text #19
    ID                          : 22
    Format                      : VobSub
    Muxing mode                 : zlib
    Codec ID                    : S_VOBSUB
    Codec ID/Info               : Picture based subtitle format used on DVDs
    Duration                    : 2 h 29 min
    Bit rate                    : 3 500 b/s
    Count of elements           : 1227
    Stream size                 : 3.74 MiB (0%)
    Language                    : Chinese
    Default                     : No
    Forced                      : No
    
    Menu
    00:00:00.000                : en:Chapter 01
    00:07:13.307                : en:Chapter 02
    00:12:50.102                : en:Chapter 03
    00:17:29.006                : en:Chapter 04
    00:22:20.339                : en:Chapter 05
    00:31:49.407                : en:Chapter 06
    00:36:04.537                : en:Chapter 07
    00:39:20.399                : en:Chapter 08
    00:46:02.384                : en:Chapter 09
    00:50:05.502                : en:Chapter 10
    00:53:15.984                : en:Chapter 11
    00:58:31.382                : en:Chapter 12
    01:06:07.088                : en:Chapter 13
    01:15:04.041                : en:Chapter 14
    01:21:23.461                : en:Chapter 15
    01:29:13.598                : en:Chapter 16
    01:34:03.929                : en:Chapter 17
    01:39:33.759                : en:Chapter 18
    01:44:11.203                : en:Chapter 19
    01:48:18.408                : en:Chapter 20
    01:52:17.147                : en:Chapter 21
    01:58:17.340                : en:Chapter 22
    01:59:30.913                : en:Chapter 23
    02:09:19.209                : en:Chapter 24
    02:13:33.714                : en:Chapter 25
    02:18:36.099                : en:Chapter 26
    02:22:58.903                : en:Chapter 27
    02:27:13.074                : en:Chapter 28
    i checked manual of the tv available online for download, showing this:
    Image
    [Attachment 43983 - Click to enlarge]

    Image
    [Attachment 43984 - Click to enlarge]
    Last edited by dc7800; 30th Jan 2019 at 03:22.
    Quote Quote  
  2. Member
    Join Date
    Dec 2017
    Location
    Winnipeg
    Search Comp PM
    There are a few things to look at when checking compatibility.

    You want to make sure the container, the video, and the audio are all supported.

    Your file is an MKV container, HEVC video, and 6-Channel AAC audio.

    According to the manual you posted, the TV supports the MKV container.
    It also says it supports H.265 video in an MKV, which is the same as HEVC.

    So you're good for video, but the audio may be an issue.

    The manual explicitly says 2 Channel, and your file is 6-Channel.
    So we don't know how the TV will handle this.

    Maybe it will downmix the 6 Channels to 2 Channels, which would be acceptable if you're using the TV's speakers.
    Or maybe it will just play the left and right audio channels, and throw away the other 4. This is bad, because it would throw out the centre channel, which is where basically all the actors' voices are.
    Or maybe it will just have no audio.


    So the answer to your question is, unfortunately, "Maybe".
    You might have to convert the file to get the audio working.

    Your file also has subtitles, and the manual doesn't say anything about those, and if they are supported.
    Quote Quote  
  3. So you're good for video
    I think also a maybe for that.

    Format profile : Main 10@L4@Main

    10 bit encoding may be a problem.
    Quote Quote  
  4. Member
    Join Date
    Aug 2013
    Location
    Central Germany
    Search PM
    In general, ensure that the USB stick has a sufficient read speed for the scenes with the highest bitrates in the movie.
    Quote Quote  
  5. Member Bernix's Avatar
    Join Date
    Apr 2016
    Location
    Europe
    Search Comp PM
    Digital: MPEG-2 MP@ML/HL, H.264/MPEG-4 AVC
    MP/HP@L4, H.265/HEVC MP/Main10@L5.1 (Full
    HD 60fps)
    This is very important, so video shouldn't be problem, also fat16, fat32 and NTFS are supported.
    PDF

    Bernix
    Quote Quote  



Similar Threads