VideoHelp Forum

Our website is made possible by displaying online advertisements to our visitors.
Please consider supporting us by disabling your ad blocker or buy PlayOn and record Netflix! :)
+ Reply to Thread
Results 1 to 2 of 2
Thread
  1. Member
    Join Date
    Dec 2017
    Location
    Australia
    Search PM
    Hello,

    I was going to record a TV show so that I would watch it later and sadly I didn't know that it was on till I started watching it (Someone else in the house told me). Anyhow I saw that you can watch it online and I managed to download the file but I am unable to convert it or watch it with VLC player.

    Here's the mediainfo that I got from the file:

    General
    Complete name : C:\Users\Daniel\Downloads\Video\War On Waste - Series 1 Ep 4 Turning The Tide - ABC iview.FLV
    Format : Flash Video
    File size : 649 MiB
    Duration : 59 min 48 s
    Overall bit rate : 1 516 kb/s

    Video
    Duration : 59 min 48 s
    Bit rate : 1 322 kb/s
    Width : 1 024 pixels
    Height : 576 pixels
    Display aspect ratio : 16:9
    Frame rate mode : Constant
    Frame rate : 25.000 FPS
    Bits/(Pixel*Frame) : 0.090
    Stream size : 566 MiB (87%)

    Audio
    Duration : 59 min 48 s
    Bit rate : 128 kb/s
    Sampling rate : 44.1 kHz
    Bit depth : 16 bits
    Stream size : 54.7 MiB (8%)
    Could someone please tell me what I would need to conver it? I tried Free FLV to MP4 Converter and that failed to load the file and I can't play it in vlc.

    Thank you
    Quote Quote  


  2. . .
    Last edited by sysanin; 4th Dec 2017 at 18:44.
    Quote Quote  



Similar Threads