VideoHelp Forum

Our website is made possible by displaying online advertisements to our visitors.
Please consider supporting us by disabling your ad blocker or buy a VSO converter software :)
+ Reply to Thread
Results 1 to 7 of 7
Thread
  1. Hello guys i need some help about MKVToolNix!

    1: How can i set this File Title like default for any new file ? Ask because when i go to the Input tab and remove the files and add new files then the File Title remove and need to put it again and again from the begin!

    Image
    [Attachment 42270 - Click to enlarge]


    2: How can i automaticaly remove the Global Tags?


    Image
    [Attachment 42271 - Click to enlarge]


    If i dont remove it in MediaInfo show me this tags:

    Code:
    Writing application                      : mkvmerge v13.0.0 ('The Juggler') 64bit
    Writing library                          : libebml v1.3.4 + libmatroska v1.4.5 / Lavf55.12.0
    
    Video
    ID                                       : 1
    Format                                   : AVC
    Format/Info                              : Advanced Video Codec
    Format profile                           : Main@L4
    Format settings, CABAC                   : Yes
    Format settings, RefFrames               : 4 frames
    Codec ID                                 : V_MPEG4/ISO/AVC
    Duration                                 : 1 h 40 min
    Bit rate                                 : 2 700 kb/s
    Width                                    : 1 280 pixels
    Height                                   : 720 pixels
    Display aspect ratio                     : 16:9
    Frame rate mode                          : Constant
    Frame rate                               : 23.976 (24000/1001) FPS
    Color space                              : YUV
    Chroma subsampling                       : 4:2:0
    Bit depth                                : 8 bits
    Scan type                                : Progressive
    Bits/(Pixel*Frame)                       : 0.122
    Stream size                              : 1.83 GiB (90%)
    Writing library                          : x264 core 142 r2479 dd79a61
    Encoding settings                        : cabac=1 / ref=1 / deblock=1:0:0 / analyse=0x1:0x111 / me=hex / subme=2 / psy=1 / psy_rd=1.00:0.00 / mixed_ref=0 / me_range=16 / chroma_me=1 / trellis=0 / 8x8dct=0 / cqm=0 / deadzone=21,11 / fast_pskip=1 / chroma_qp_offset=0 / threads=60 / lookahead_threads=5 / sliced_threads=0 / nr=0 / decimate=1 / interlaced=0 / bluray_compat=0 / constrained_intra=0 / bframes=3 / b_pyramid=2 / b_adapt=1 / b_bias=0 / direct=1 / weightb=1 / open_gop=0 / weightp=1 / keyint=240 / keyint_min=24 / scenecut=40 / intra_refresh=0 / rc_lookahead=10 / rc=abr / mbtree=1 / bitrate=2700 / ratetol=1.0 / qcomp=0.60 / qpmin=0 / qpmax=69 / qpstep=4 / vbv_maxrate=20000 / vbv_bufsize=25000 / nal_hrd=none / filler=0 / ip_ratio=1.40 / aq=1:1.00
    Default                                  : Yes
    Forced                                   : No
    Color range                              : Limited
    Color primaries                          : BT.709
    Transfer characteristics                 : BT.709
    Matrix coefficients                      : BT.709
    Statistics Tags Issue                    : mkvmerge v13.0.0 ('The Juggler') 64bit 2017-07-11 17:40:18 / mkvmerge v13.0.0 ('The Juggler') 64bit 2017-07-11 17:40:18 / UTC 2017-07-11T10:01:23Z
    FromStats_BitRate                        : 2675214
    FromStats_Duration                       : 01:40:08.012000000
    FromStats_FrameCount                     : 144048
    FromStats_StreamSize                     : 2009090343
    
    Audio
    ID                                       : 2
    Format                                   : AC-3
    Format/Info                              : Audio Coding 3
    Format settings, Endianness              : Big
    Codec ID                                 : A_AC3
    Duration                                 : 1 h 40 min
    Bit rate mode                            : Constant
    Bit rate                                 : 224 kb/s
    Channel(s)                               : 6 channels
    Channel positions                        : Front: L C R, Side: L R, LFE
    Sampling rate                            : 48.0 kHz
    Frame rate                               : 31.250 FPS (1536 SPF)
    Bit depth                                : 16 bits
    Compression mode                         : Lossy
    Delay relative to video                  : -5 ms
    Stream size                              : 160 MiB (8%)
    Title                                    : Surround
    Language                                 : English
    Service kind                             : Complete Main
    Default                                  : Yes
    Forced                                   : No
    Statistics Tags Issue                    : mkvmerge v13.0.0 ('The Juggler') 64bit 2017-07-11 17:40:18 / mkvmerge v13.0.0 ('The Juggler') 64bit 2017-07-11 17:40:18 / UTC 2017-07-11T10:01:23Z
    FromStats_BitRate                        : 224000
    FromStats_Duration                       : 01:40:08.000000000
    FromStats_FrameCount                     : 187750
    FromStats_StreamSize                     : 168224000
    Quote Quote  
  2. 1. Preferences->Multiplexer->Default values and disable "Automatically remove file title when the last file is removed". But this will only work when removing files from the Source files field. It doesn't work when closing/opening new tabs.
    2. To disable statistic tracks go Preferences->Multiplexer->Default values and add Default additional command-line option: --disable-track-statistics-tags
    Quote Quote  
  3. Originally Posted by sneaker View Post
    1. Preferences->Multiplexer->Default values and disable "Automatically remove file title when the last file is removed". But this will only work when removing files from the Source files field. It doesn't work when closing/opening new tabs.
    2. To disable statistic tracks go Preferences->Multiplexer->Default values and add Default additional command-line option: --disable-track-statistics-tags
    1. Work perfect this tip. Thanks a lot!

    2. Not work this for me!
    Quote Quote  
  4. 2.
    Note:
    - that will only deactivate/delete the statistic tags, not other global tags.
    - you need to open a new tab (or restart MKVToolNix GUI) for the setting to take effect
    - it will still show the "Global tags" "track" in the GUI but it will not be in the actual output file. Check output file with MediaInfo.


    If you need more advanced automation I recommend learning how to write scripts (e.g. batch/cmd).
    Last edited by sneaker; 11th Jul 2017 at 14:21.
    Quote Quote  
  5. I think there's actually a bug - or two. Mkvtoolnix GUI doesn't detect the statistic tags written by ffmpeg as it would those written by itself. But the cli should work nonetheless. It's more of a cosmetic issue. ffmpeg seems to duplicate already existing ones or something like that.
    Quote Quote  
  6. Originally Posted by sneaker View Post
    I think there's actually a bug - or two. Mkvtoolnix GUI doesn't detect the statistic tags written by ffmpeg as it would those written by itself. But the cli should work nonetheless. It's more of a cosmetic issue. ffmpeg seems to duplicate already existing ones or something like that.
    Can you explain me what you mean ? If i understand right you mean we have a bug to this version and show me this TAGS ?
    Quote Quote  
  7. It doesn't handle the ffmpeg tags the same way it handles its own tags. Not sure it actually qualifies as a bug. Either way I don't think there's currently any automatic way to get rid of them with MKVToolNix GUI.
    Quote Quote  



Similar Threads