VideoHelp Forum

Our website is made possible by displaying online advertisements to our visitors. Consider supporting us by disable your adblocker or Try ConvertXtoDVD and convert all your movies to DVD. Free trial ! :)
+ Reply to Thread
Results 1 to 5 of 5
Thread
  1. Member
    Join Date
    Jun 2017
    Location
    Asia
    Search Comp PM
    url : https://www.jnj.com/health-and-wellness/10-baby-massage-moves-any-parent-can-do-in-10-...inutes-or-less
    How do i download this video? IDMan won't work, the video url is "blob:https://www.jnj.com/8d2f9f8a-fcee-4a6e-9df5-29b861b2e27b". How do i get the embedded link to download?

    #Brightcove video
    #Blob
    #IDMan-no-bueno
    Quote Quote  
  2. Originally Posted by Zistol View Post
    url : https://www.jnj.com/health-and-wellness/10-baby-massage-moves-any-parent-can-do-in-10-...inutes-or-less
    How do i download this video? IDMan won't work, the video url is "blob:https://www.jnj.com/8d2f9f8a-fcee-4a6e-9df5-29b861b2e27b". How do i get the embedded link to download?

    #Brightcove video
    #Blob
    #IDMan-no-bueno
    You can download it with ffmpeg.

    At first, open the page on Chrome and Ctrl+Shift+I to open the developer tool. Then click on "Network".

    Type m3u8 in the search box then you can see the master.m3u8 link.

    Click on it to see the available resoutions of the video. Copy the link you want to download.

    Click image for larger version

Name:	1.JPG
Views:	436
Size:	119.1 KB
ID:	42172

    Use this code in ffmpeg
    Code:
    ffmpeg -i "the link you copied" -c copy output.ts
    Quote Quote  
  3. Thank you for going the extra step to show (by screenshot) how to get available resolutions.
    ffmpeg -i "the link you copied" -c copy output.ts
    Url from Chrome network (chose default, largest resolution):
    Code:
    https://secure.brightcove.com/services/mobile/streaming/index/master.m3u8?videoId=5430409133001&pubId=1775614113001&secure=true
    put into ffmpeg to get final download:
    Code:
    ffmpeg -i "https://secure.brightcove.com/services/mobile/streaming/index/master.m3u8?videoId=5430409133001&pubId=1775614113001&secure=true" -c copy output.ts
    Link to video:
    https://files.videohelp.com/u/61125/baby.ts
    Note: I could have selected one of the lower resolutions (640x360) as shown in above screenshot:
    Code:
    ffmpeg -i "https://secure.brightcove.com/services/mobile/streaming/index/rendition.m3u8?assetId=5454831247001&secure=true&pubId=1775614113001&videoId=5430409133001" -c copy output.ts
    Command output (what I typed or pasted is in blue):
    Microsoft Windows XP [Version 5.1.2600]
    (C) Copyright 1985-2001 Microsoft Corp.

    C:\Documents and Settings\default>cd..

    C:\Documents and Settings>cd..

    C:\>cd youtube-dl

    C:\youtube-dl>ffmpeg -i "https://secure.brightcove.com/services/mobile/streaming
    /index/master.m3u8?videoId=5430409133001&pubId=1775614113 001&secure=true" -c cop
    y output.ts

    ffmpeg version N-67673-g933eca9 Copyright (c) 2000-2014 the FFmpeg developers
    built on Nov 14 2014 22:01:58 with gcc 4.9.2 (GCC)
    configuration: --enable-gpl --enable-version3 --disable-w32threads --enable-av
    isynth --enable-bzlib --enable-fontconfig --enable-frei0r --enable-gnutls --enab
    le-iconv --enable-libass --enable-libbluray --enable-libbs2b --enable-libcaca --
    enable-libfreetype --enable-libgme --enable-libgsm --enable-libilbc --enable-lib
    modplug --enable-libmp3lame --enable-libopencore-amrnb --enable-libopencore-amrw
    b --enable-libopenjpeg --enable-libopus --enable-librtmp --enable-libschroedinge
    r --enable-libsoxr --enable-libspeex --enable-libtheora --enable-libtwolame --en
    able-libvidstab --enable-libvo-aacenc --enable-libvo-amrwbenc --enable-libvorbis
    --enable-libvpx --enable-libwavpack --enable-libwebp --enable-libx264 --enable-
    libx265 --enable-libxavs --enable-libxvid --enable-zlib
    libavutil 54. 11.100 / 54. 11.100
    libavcodec 56. 12.100 / 56. 12.100
    libavformat 56. 12.103 / 56. 12.103
    libavdevice 56. 3.100 / 56. 3.100
    libavfilter 5. 2.103 / 5. 2.103
    libswscale 3. 1.101 / 3. 1.101
    libswresample 1. 1.100 / 1. 1.100
    libpostproc 53. 3.100 / 53. 3.100
    Input #0, hls,applehttp, from 'https://secure.brightcove.com/services/mobile/str
    eaming/index/master.m3u8?videoId=5430409133001&pubId=1775614113 001&secure=true':

    Duration: 00:02:52.00, start: 9.945333, bitrate: 0 kb/s
    Program 0
    Metadata:
    variant_bitrate : 514000
    Stream #0:0: Video: h264 (Constrained Baseline) ([27][0][0][0] / 0x001B), yu
    v420p, 480x270 [SAR 1:1 DAR 16:9], 29.97 fps, 29.97 tbr, 90k tbn, 59.94 tbc
    Metadata:
    variant_bitrate : 514000
    Stream #0:1: Audio: aac (LC) ([15][0][0][0] / 0x000F), 48000 Hz, stereo, flt
    p, 123 kb/s
    Metadata:
    variant_bitrate : 514000
    Program 1
    Metadata:
    variant_bitrate : 795000
    Stream #0:2: Video: h264 (Constrained Baseline) ([27][0][0][0] / 0x001B), yu
    v420p, 640x360 [SAR 1:1 DAR 16:9], 29.97 fps, 29.97 tbr, 90k tbn, 59.94 tbc
    Metadata:
    variant_bitrate : 795000
    Stream #0:3: Audio: aac (LC) ([15][0][0][0] / 0x000F), 48000 Hz, stereo, flt
    p, 150 kb/s
    Metadata:
    variant_bitrate : 795000
    Program 2
    Metadata:
    variant_bitrate : 997000
    Stream #0:4: Video: h264 (Main) ([27][0][0][0] / 0x001B), yuv420p, 640x360 [
    SAR 1:1 DAR 16:9], 29.97 fps, 29.97 tbr, 90k tbn, 59.94 tbc
    Metadata:
    variant_bitrate : 997000
    Stream #0:5: Audio: aac (LC) ([15][0][0][0] / 0x000F), 48000 Hz, stereo, flt
    p, 150 kb/s
    Metadata:
    variant_bitrate : 997000
    Program 3
    Metadata:
    variant_bitrate : 1295000
    Stream #0:6: Video: h264 (Main) ([27][0][0][0] / 0x001B), yuv420p, 960x540 [
    SAR 1:1 DAR 16:9], 29.97 fps, 29.97 tbr, 90k tbn, 59.94 tbc
    Metadata:
    variant_bitrate : 1295000
    Stream #0:7: Audio: aac (LC) ([15][0][0][0] / 0x000F), 48000 Hz, stereo, flt
    p, 150 kb/s
    Metadata:
    variant_bitrate : 1295000
    Program 4
    Metadata:
    variant_bitrate : 1832000
    Stream #0:8: Video: h264 (Main) ([27][0][0][0] / 0x001B), yuv420p, 960x540 [
    SAR 1:1 DAR 16:9], 29.97 fps, 29.97 tbr, 90k tbn, 59.94 tbc
    Metadata:
    variant_bitrate : 1832000
    Stream #0:9: Audio: aac (LC) ([15][0][0][0] / 0x000F), 48000 Hz, stereo, flt
    p, 156 kb/s
    Metadata:
    variant_bitrate : 1832000
    Program 5
    Metadata:
    variant_bitrate : 2135000
    Stream #0:10: Video: h264 (Main) ([27][0][0][0] / 0x001B), yuv420p, 1280x720
    [SAR 1:1 DAR 16:9], 29.97 fps, 29.97 tbr, 90k tbn, 59.94 tbc
    Metadata:
    variant_bitrate : 2135000
    Stream #0:11: Audio: aac (LC) ([15][0][0][0] / 0x000F), 48000 Hz, stereo, fl
    tp, 156 kb/s
    Metadata:
    variant_bitrate : 2135000
    File 'output.ts' already exists. Overwrite ? [y/N] N
    Last edited by jimdagys; 30th Jun 2017 at 09:36.
    Quote Quote  
  4. Hi ,

    keep attention on the write :
    1775614113001
    instead of
    1775614113 001

    cheers .
    JE SUIS CHARLIE !!!
    Quote Quote  
  5. Member
    Join Date
    Jun 2017
    Location
    Asia
    Search Comp PM
    Thank you, i just downloaded it and it works ! Cheers !
    Quote Quote  



Similar Threads