VideoHelp Forum

Our website is made possible by displaying online advertisements to our visitors.
Please consider supporting us by disabling your ad blocker or buy a VSO converter software :)
+ Reply to Thread
Results 1 to 12 of 12
Thread
  1. i record a tv program from satellite receiver i want to simply cut from start and end positions, i don't want to change the format

    this is mediainfo log file

    General
    ID : 4 (0x4)
    Complete name : F:\PVR\Hakodate, Japan - HD\NHK World TV HD(20170211_180546).TSV
    Format : MPEG-TS
    File size : 3.36 GiB
    Duration : 52 min 57 s
    Overall bit rate mode : Variable
    Overall bit rate : 9 089 kb/s
    FileExtension_Invalid : ts m2t m2s m2ts m4t m4s ts tp trp

    Video
    ID : 1160 (0x488)
    Menu ID : 26 (0x1A)
    Format : AVC
    Format/Info : Advanced Video Codec
    Format profile : High@L4
    Format settings, CABAC : Yes
    Format settings, ReFrames : 4 frames
    Codec ID : 27
    Duration : 52 min 57 s
    Bit rate : 8 543 kb/s
    Width : 1 920 pixels
    Height : 1 080 pixels
    Display aspect ratio : 16:9
    Frame rate : 25.000 FPS
    Color space : YUV
    Chroma subsampling : 4:2:0
    Bit depth : 8 bits
    Scan type : MBAFF
    Scan type, store method : Interleaved fields
    Scan order : Top Field First
    Bits/(Pixel*Frame) : 0.165
    Stream size : 3.16 GiB (94%)

    Audio
    ID : 1120 (0x460)
    Menu ID : 26 (0x1A)
    Format : MPEG Audio
    Format version : Version 1
    Format profile : Layer 2
    Codec ID : 3
    Duration : 52 min 57 s
    Bit rate mode : Constant
    Bit rate : 96.0 kb/s
    Channel(s) : 1 channel
    Sampling rate : 48.0 kHz
    Compression mode : Lossy
    Delay relative to video : -573 ms
    Stream size : 36.4 MiB (1%)
    Language : English

    Menu
    ID : 5011 (0x1393)
    Menu ID : 26 (0x1A)
    Duration : 52 min 57 s
    List : 1160 (0x488) (AVC) / 1120 (0x460) (MPEG Audio, English)
    Language : / English
    Quote Quote  
  2. Member
    Join Date
    Jan 2007
    Location
    United States
    Search Comp PM
    i use Video Redo to edit DVR recordings, its not free, but its good, it has stream Fix feature you can run before editing, to fix any glitches or time sync play back problems
    then use the time line editor, and mark what to cut and what to keep and save your file
    Quote Quote  
  3. Mod Neophyte Super Moderator redwudz's Avatar
    Join Date
    Sep 2002
    Location
    USA
    Search Comp PM
    tsMuxeR is one possibility. Or maybe AVIDemux if you need more edit options. They are both freeware.

    And welcome to our forums.
    Quote Quote  
  4. thanks for help, in tsMuxeR file not supported but AVIDemux awesome free software, its working very good. thanks
    Quote Quote  
  5. i record a program from another channel but when i try to open with AVIDemux, (not working) message appear in top of the window,

    this is mediainfo log file


    General
    ID : 1 (0x1)
    Complete name : F:\PVR\BBC Earth(20170218_004527)\BBC Earth(20170218_004527).TSV
    Format : MPEG-TS
    File size : 2.76 GiB
    Duration : 59 min 10 s
    Overall bit rate mode : Variable
    Overall bit rate : 6 684 kb/s
    FileExtension_Invalid : ts m2t m2s m2ts m4t m4s ts tp trp

    Video
    ID : 2130 (0x852)
    Menu ID : 21 (0x15)
    Format : AVC
    Format/Info : Advanced Video Codec
    Format profile : Main@L4
    Format settings, CABAC : Yes
    Format settings, ReFrames : 4 frames
    Codec ID : 27
    Duration : 59 min 8 s
    Width : 1 920 pixels
    Height : 1 080 pixels
    Display aspect ratio : 16:9
    Frame rate : 25.000 FPS
    Color space : YUV
    Chroma subsampling : 4:2:0
    Bit depth : 8 bits
    Scan type : Interlaced
    Scan type, store method : Separated fields
    Scan order : Top Field First
    Color range : Limited
    Color primaries : BT.709
    Transfer characteristics : BT.709
    Matrix coefficients : BT.709

    Audio #1
    ID : 2131 (0x853)
    Menu ID : 21 (0x15)
    Format : MPEG Audio
    Format version : Version 1
    Format profile : Layer 2
    Mode : Joint stereo
    Codec ID : 4
    Duration : 59 min 10 s
    Bit rate mode : Constant
    Bit rate : 128 kb/s
    Channel(s) : 2 channels
    Sampling rate : 48.0 kHz
    Compression mode : Lossy
    Delay relative to video : -690 ms
    Stream size : 54.2 MiB (2%)

    Audio #2
    ID : 2132 (0x854)
    Menu ID : 21 (0x15)
    Format : MPEG Audio
    Codec ID : 4
    Compression mode : Lossy

    Audio #3
    ID : 2133 (0x855)
    Menu ID : 21 (0x15)
    Format : MPEG Audio
    Codec ID : 4
    Compression mode : Lossy

    Audio #4
    ID : 2134 (0x856)
    Menu ID : 21 (0x15)
    Format : MPEG Audio
    Codec ID : 4
    Compression mode : Lossy

    Text #1
    ID : 2140 (0x85C)
    Menu ID : 21 (0x15)
    Format : DVB Subtitle
    Codec ID : 6
    Duration : 59 min 6 s
    Delay relative to video : 4 s 909 ms
    Language : Chinese

    Text #2
    ID : 2141 (0x85D)
    Menu ID : 21 (0x15)
    Format : DVB Subtitle
    Codec ID : 6
    Duration : 59 min 6 s
    Delay relative to video : 4 s 991 ms
    Language : Korean

    Text #3
    ID : 2142 (0x85E)
    Menu ID : 21 (0x15)
    Format : DVB Subtitle
    Codec ID : 6
    Duration : 59 min 6 s
    Delay relative to video : 4 s 953 ms
    Language : Indonesian

    Text #4
    ID : 2143 (0x85F)
    Menu ID : 21 (0x15)
    Format : DVB Subtitle
    Codec ID : 6
    Duration : 59 min 6 s
    Delay relative to video : 4 s 909 ms
    Language : Malay

    Menu
    ID : 5021 (0x139D)
    Menu ID : 21 (0x15)
    Duration : 59 min 10 s
    List : 2130 (0x852) (AVC) / 2131 (0x853) (MPEG Audio) / 2132 (0x854) (MPEG Audio) / 2133 (0x855) (MPEG Audio) / 2134 (0x856) (MPEG Audio) / 2140 (0x85C) (DVB Subtitle, Chinese) / 2141 (0x85D) (DVB Subtitle, Korean) / 2142 (0x85E) (DVB Subtitle, Indonesian) / 2143 (0x85F) (DVB Subtitle, Malay) / 2160 (0x870) (SCTE 35)
    Language : / / / / / Chinese / Korean / Indonesian / Malay
    Quote Quote  
  6. Member
    Join Date
    Jan 2007
    Location
    United States
    Search Comp PM
    Will it play on the pc in VLC or mpc

    If not it's encrypted or corrupt

    I do use avidemux for some things
    But I not sure it can handle something with that many audio and text streams
    Quote Quote  
  7. Its not encrypted, VLC open it.

    by the way any way to open encrypted videos because many channels recordings not open on VLC but i want to record it.
    Quote Quote  
  8. Member
    Join Date
    Jan 2007
    Location
    United States
    Search Comp PM
    What are you recording on
    Any video recorded on the pc, you should be able to open
    Transferring from hard drive from satellite DVR encrypted, just forget it
    Will take the Nsa super computers to decrypt
    Quote Quote  
  9. I record documentaries like from bbc earth, discovery science
    ok please tell me about my 2nd recording, its not encrypted, vlc open it, but AVIDemux not handle it,
    Quote Quote  
  10. please tell me any other free cutter like AVIDemux
    Quote Quote  
  11. Member
    Join Date
    Aug 2006
    Location
    United States
    Search Comp PM
    TS streams recorded from over-the-air broadcast TV, satellite TV, or even cable TV can have missing frames and other errors. Free editors and the majority of paid editors can't handle these problems. I looked for a freeware solution for a long time before finally giving up and buying paid software. TSSniper was the best freeware I tried, but was still inadequate. It only cuts on I or IDR frames and is unable to deal with more than a few errors. I never tried TSSniper for editing H.264 streams but its specs include H.264.

    VideoReDo TVSuite and TSDoctor are paid editors designed to handle errors in recorded H.264 digital TV streams. TMPGEnc MPEG Smart Renderer 5 is another paid program that seems to work for some people.
    Last edited by usually_quiet; 21st Feb 2017 at 16:58. Reason: missing word
    Ignore list: hello_hello, tried
    Quote Quote  



Similar Threads