VideoHelp Forum

Try DVDFab and download streaming video, copy, convert or make Blu-rays,DVDs! Download free trial !
+ Reply to Thread
Page 16 of 16
FirstFirst ... 6 14 15 16
Results 451 to 469 of 469
Thread
  1. Originally Posted by vloaming View Post
    Originally Posted by ChezBompaLawijt View Post
    Originally Posted by steveschumi View Post
    this is the url= https://www.vier.be/video/help-mijn-borsten-staan-online/help-mijn-borsten-staan-onlin...1-aflevering-1 still gives me the error. tested different url's of there programs nothing works. keep getting that 403 error.
    i have downloaded it myself and it works fine here is the urlhttps://stream1-vod.cdn1.sbs.prd.telenet-ops.be/geo/HELP_MIJN_BORSTEN_STAAN_ONLINE/S1/..._F0270582.m3u8 to download with TVDownloader or with youtube-dl >> youtube-dl.exe -f best https://stream1-vod.cdn1.sbs.prd.telenet-ops.be/geo/HELP_MIJN_BORSTEN_STAAN_ONLINE/S1/..._F0270582.m3u8

    Can you help me to download the episodes from "stukken van mensen - S5"?

    Thanks in advance!
    Episode 1 >> https://stream1-vod.cdn1.sbs.prd.telenet-ops.be/geo/STUKKEN_VAN_MENSEN/S5/volledigeafl..._F0270553.m3u8 Episode 2 >> https://stream1-vod.cdn1.sbs.prd.telenet-ops.be/geo/STUKKEN_VAN_MENSEN/S5/volledigeafl..._F0270627.m3u8 Episode 3 >> https://stream1-vod.cdn1.sbs.prd.telenet-ops.be/geo/STUKKEN_VAN_MENSEN/S5/volledigeafl..._F0270711.m3u8 right click on the links and select copy and paste them on TVDownloader i found the links with developer console and searching for m3u8 goodluck with downloading!
    Last edited by ChezBompaLawijt; 15th Feb 2020 at 12:28.
    Quote Quote  
  2. Hi All,

    Trying to download the first episode of "Over Water Season 2"
    Link: https://www.vrt.be/vrtnu/a-z/over-water/2/over-water-s2a1/

    I get an error message
    [VrtNU] over-water-s2a1: Downloading webpage
    [VrtNU] over-water-s2a1: Downloading JSON metadata
    [Canvas] pbs-pub-a181bc3c-3bdc-442b-aeff-338c2775dd3a$vid-eeb2867f-5d62-4358-a7d7-802e071fc269: Downloading JSON metadata
    ERROR: Unable to download JSON metadata: HTTP Error 404: Not Found (caused by HTTPError()); please report this issue on https://yt-dl.org/bug . Make sure you are using the latest version; type youtube-dl -U to update. Be sure to call youtube-dl with the --verbose flag and include its complete output.
    Press any key to continue . . .
    Image Attached Thumbnails Click image for larger version

Name:	OverWaterFailed.png
Views:	36
Size:	78.0 KB
ID:	52156  

    Quote Quote  
  3. Member
    Join Date
    Mar 2019
    Location
    Germany
    Search PM
    Originally Posted by Icescream View Post
    Hi All,

    Trying to download the first episode of "Over Water Season 2"
    Link: https://www.vrt.be/vrtnu/a-z/over-water/2/over-water-s2a1/

    I get an error message
    You need to login with your profile.

    You can use youtube-dl with the following command:
    Code:
    youtube-dl.exe --username YOURUSERNAME --password YOURPASSWORD https://www.vrt.be/vrtnu/a-z/over-water/2/over-water-s2a1
    Quote Quote  
  4. Originally Posted by hvq View Post
    Originally Posted by Icescream View Post
    Hi All,

    Trying to download the first episode of "Over Water Season 2"
    Link: https://www.vrt.be/vrtnu/a-z/over-water/2/over-water-s2a1/

    I get an error message
    You need to login with your profile.

    You can use youtube-dl with the following command:
    Code:
    youtube-dl.exe --username YOURUSERNAME --password YOURPASSWORD https://www.vrt.be/vrtnu/a-z/over-water/2/over-water-s2a1
    Hey hvq,

    Thanks for the tip & command. I've used youtube-dl.exe as you suggested and that worked for me. Thanks!
    Quote Quote  
  5. Member
    Join Date
    Mar 2020
    Location
    Belgium
    Search Comp PM
    Hi Xplorr,

    I am a complete novice in this field and on this site.

    I appreciate your software a lot !
    Many thanks for this very helpful device

    Problem :
    I succeeded downloading from VRT NU a complete serie (for personal use).
    Except one movie.
    All worked fine, except for this particular part of the serie.

    The site is : https://www.vrt.be/vrtnu/a-z/kamp-waes/1/kamp-waes-s1a5/
    I get the following message from my Command Prompt :
    see picture
    How can I solve this, in order to download this program ?

    Many thanks in advance !

    * today is the last day that the movie is available on VRT NU.
    Hope that I am still in time to solve this !
    Image Attached Thumbnails Click image for larger version

Name:	20200309 TVDownloader - error report .jpg
Views:	42
Size:	226.7 KB
ID:	52291  

    Quote Quote  
  6. Originally Posted by Bear88 View Post
    Hi Xplorr,

    I am a complete novice in this field and on this site.

    I appreciate your software a lot !
    Many thanks for this very helpful device

    Problem :
    I succeeded downloading from VRT NU a complete serie (for personal use).
    Except one movie.
    All worked fine, except for this particular part of the serie.

    The site is : https://www.vrt.be/vrtnu/a-z/kamp-waes/1/kamp-waes-s1a5/
    I get the following message from my Command Prompt :
    see picture
    How can I solve this, in order to download this program ?

    Many thanks in advance !

    * today is the last day that the movie is available on VRT NU.
    Hope that I am still in time to solve this !
    I had the same problem and I used the MPD link:

    Quote Quote  
  7. Member
    Join Date
    Aug 2009
    Location
    New Zealand
    Search Comp PM
    let me try this hope it works like getflv to download videos off mtv site

    edit

    wow this app works thanks so much now i can record live streams that where blocked for download

    but trying to download this http://www.mtvbase.com/music/videos/af46st/communicate-Music-Video

    i got this what is in the photo
    Image Attached Thumbnails Click image for larger version

Name:	12.JPG
Views:	40
Size:	42.9 KB
ID:	52307  

    Last edited by jamespoo; 10th Mar 2020 at 18:36.
    Quote Quote  
  8. Member
    Join Date
    Aug 2009
    Location
    New Zealand
    Search Comp PM
    wow how did you get it to download ?
    Quote Quote  
  9. Member
    Join Date
    Nov 2015
    Location
    Campuchia - Sapoche
    Search Comp PM
    Originally Posted by jamespoo View Post
    but trying to download this http://www.mtvbase.com/music/videos/af46st/communicate-Music-Video
    i got this what is in the photo

    Use ffmpeg

    ffmpeg -user_agent "Mozilla/5.0 (Windows NT 6.1; Win64; x64; rv:73.0) Gecko/20100101 Firefox/73.0" -referer "http://www.mtvbase.com/music/videos/af46st/communicate-Music-Video" -i "https://dlvrsvc.mtvnservices.com/api/gen/gsp.mtviestor/_!/intlod/MTVInternational/wmg_int/nzwm00/100286/0/,stream_384x216_156548_2931624761,stream_448x252_4 58067_1871692859,stream_512x288_756105_3959495070, stream_640x360_1204408_663044876,stream_768x432_17 02596_273837634,stream_384x216_408613_4003815606/master.m3u8?account=intl.mtvi.com&cdn=level3&tk=st =1584091881~exp=1584178281~acl=/api/gen/gsp.mtviestor/_*/intlod/MTVInternational/wmg_int/nzwm00/100286/0/*~hmac=5c07b5e6d12d8741a1db159c20e80d61f76d1bb7a6d 20f187d41bde40cff7462" -c copy "test.ts"

    [hls @ 00000000003e9cc0] Opening 'crypto+https://vimn-l3.ts.mtvnservices.com/gsp
    .mtviestor/_!/intlod/MTVInternational/wmg_int/nzwm00/100286/0/seg_768x432_170259
    6_27_273837634.ts' for reading
    frame= 4799 fps= 31 q=-1.0 size= 42240kB time=00:03:12.02 bitrate=1802.0kbits/
    frame= 4826 fps= 31 q=-1.0 size= 42496kB time=00:03:13.09 bitrate=1802.9kbits/
    frame= 4842 fps= 31 q=-1.0 size= 42752kB time=00:03:13.74 bitrate=1807.6kbits/
    frame= 4900 fps= 31 q=-1.0 size= 43264kB time=00:03:16.06 bitrate=1807.6kbits/
    frame= 4920 fps= 31 q=-1.0 size= 43520kB time=00:03:16.85 bitrate=1811.0kbits/
    [hls @ 00000000003e9cc0] Opening 'crypto+https://vimn-l3.ts.mtvnservices.com/gsp
    .mtviestor/_!/intlod/MTVInternational/wmg_int/nzwm00/100286/0/seg_448x252_458067
    _28_1871692859.ts' for reading
    frame= 4978 fps= 31 q=-1.0 size= 43776kB time=00:03:19.18 bitrate=1800.4kbits/
    [hls @ 00000000003e9cc0] Opening 'crypto+https://vimn-l3.ts.mtvnservices.com/gsp
    .mtviestor/_!/intlod/MTVInternational/wmg_int/nzwm00/100286/0/seg_768x432_170259
    6_28_273837634.ts' for reading
    frame= 4979 fps= 31 q=-1.0 size= 43776kB time=00:03:19.22 bitrate=1800.0kbits/
    frame= 5005 fps= 31 q=-1.0 size= 44032kB time=00:03:20.24 bitrate=1801.3kbits/
    frame= 5014 fps= 31 q=-1.0 size= 44032kB time=00:03:20.62 bitrate=1798.0kbits/
    frame= 5054 fps= 31 q=-1.0 Lsize= 44573kB time=00:03:22.12 bitrate=1806.5kbits
    /s speed=1.23x
    video:39547kB audio:1215kB subtitle:0kB other streams:0kB global headers:0kB mux
    ing overhead: 9.349370%
    Quote Quote  
  10. Member
    Join Date
    Aug 2009
    Location
    New Zealand
    Search Comp PM
    Originally Posted by therain View Post
    Originally Posted by jamespoo View Post
    but trying to download this http://www.mtvbase.com/music/videos/af46st/communicate-Music-Video
    i got this what is in the photo

    Use ffmpeg

    ffmpeg -user_agent "Mozilla/5.0 (Windows NT 6.1; Win64; x64; rv:73.0) Gecko/20100101 Firefox/73.0" -referer "http://www.mtvbase.com/music/videos/af46st/communicate-Music-Video" -i "https://dlvrsvc.mtvnservices.com/api/gen/gsp.mtviestor/_!/intlod/MTVInternational/wmg_int/nzwm00/100286/0/,stream_384x216_156548_2931624761,stream_448x252_4 58067_1871692859,stream_512x288_756105_3959495070, stream_640x360_1204408_663044876,stream_768x432_17 02596_273837634,stream_384x216_408613_4003815606/master.m3u8?account=intl.mtvi.com&cdn=level3&tk=st =1584091881~exp=1584178281~acl=/api/gen/gsp.mtviestor/_*/intlod/MTVInternational/wmg_int/nzwm00/100286/0/*~hmac=5c07b5e6d12d8741a1db159c20e80d61f76d1bb7a6d 20f187d41bde40cff7462" -c copy "test.ts"

    [hls @ 00000000003e9cc0] Opening 'crypto+https://vimn-l3.ts.mtvnservices.com/gsp
    .mtviestor/_!/intlod/MTVInternational/wmg_int/nzwm00/100286/0/seg_768x432_170259
    6_27_273837634.ts' for reading
    frame= 4799 fps= 31 q=-1.0 size= 42240kB time=00:03:12.02 bitrate=1802.0kbits/
    frame= 4826 fps= 31 q=-1.0 size= 42496kB time=00:03:13.09 bitrate=1802.9kbits/
    frame= 4842 fps= 31 q=-1.0 size= 42752kB time=00:03:13.74 bitrate=1807.6kbits/
    frame= 4900 fps= 31 q=-1.0 size= 43264kB time=00:03:16.06 bitrate=1807.6kbits/
    frame= 4920 fps= 31 q=-1.0 size= 43520kB time=00:03:16.85 bitrate=1811.0kbits/
    [hls @ 00000000003e9cc0] Opening 'crypto+https://vimn-l3.ts.mtvnservices.com/gsp
    .mtviestor/_!/intlod/MTVInternational/wmg_int/nzwm00/100286/0/seg_448x252_458067
    _28_1871692859.ts' for reading
    frame= 4978 fps= 31 q=-1.0 size= 43776kB time=00:03:19.18 bitrate=1800.4kbits/
    [hls @ 00000000003e9cc0] Opening 'crypto+https://vimn-l3.ts.mtvnservices.com/gsp
    .mtviestor/_!/intlod/MTVInternational/wmg_int/nzwm00/100286/0/seg_768x432_170259
    6_28_273837634.ts' for reading
    frame= 4979 fps= 31 q=-1.0 size= 43776kB time=00:03:19.22 bitrate=1800.0kbits/
    frame= 5005 fps= 31 q=-1.0 size= 44032kB time=00:03:20.24 bitrate=1801.3kbits/
    frame= 5014 fps= 31 q=-1.0 size= 44032kB time=00:03:20.62 bitrate=1798.0kbits/
    frame= 5054 fps= 31 q=-1.0 Lsize= 44573kB time=00:03:22.12 bitrate=1806.5kbits
    /s speed=1.23x
    video:39547kB audio:1215kB subtitle:0kB other streams:0kB global headers:0kB mux
    ing overhead: 9.349370%

    how can i use ffmpeg to do this
    Quote Quote  
  11. I cannot download this video: https://www.opernhaus.ch/en/spielplan/streaming/das-land-des-laechelns/
    It uses vimeo player, but I cannot find the right master or index or m3u
    Thanks to all
    Quote Quote  
  12. I've been downloading videos from viafree's norway site for a while now using tv downloader but suddenly some videos have started giving me an error. The video plays normally on the browser but I get a "no video formats found" error. I'm not really savvy enough to figure out what on earth is wrong so any help is appreciated.

    I can download this normally but not this, for example.
    Image Attached Thumbnails Click image for larger version

Name:	bugs.png
Views:	5
Size:	10.1 KB
ID:	52486  

    Quote Quote  
  13. It doesen't work for me:
    [generic] master: Requesting header
    [generic] master: Downloading m3u8 information
    ERROR: requested format not available
    Appuyez sur une touche pour continuer...
    Quote Quote  
  14. Originally Posted by LZAA View Post
    I have this answer:
    Sorry

    Because of its privacy settings, this video cannot be played here
    Quote Quote  
  15. youtube-dl --referer "https://www.opernhaus.ch/en/spielplan/streaming/das-land-des-laechelns/" -F "https://player.vimeo.com/video/256765881"
    Quote Quote  
  16. Originally Posted by LZAA View Post
    youtube-dl --referer "https://www.opernhaus.ch/en/spielplan/streaming/das-land-des-laechelns/" -F "https://player.vimeo.com/video/256765881"
    Thanks a lot for your help
    Quote Quote  



Similar Threads