VideoHelp Forum


Try DVDFab Video Downloader and rip Netflix video! Or Try DVDFab and copy Blu-rays! or rip iTunes movies!
+ Reply to Thread
Results 1 to 1 of 1
Thread
  1. Member
    Join Date
    Nov 2016
    Location
    United Kingdom
    Search PM
    Hello, I'm trying to download a video file from CBC using ffmpeg. I'm using the .m3u8 url and it downloads the video fine, but there's no audio. I'm pretty much a novice at this so any help would be greatly appreciated. Here is the link to the video I'm trying to download: http://watch.cbc.ca/rick-mercer-report/season-14/episode-7/38e815a-00b422de4bc.
    Here is the command I'm using:

    ffmpeg -i "http://v.watch.cbc.ca/p//38e815a-00b422de4bc//CBC_RICK_MERCER_SEASON_14_S14E07-v2-11148597/segments/CBC_RICK_MERCER_SEASON_14_S14E07_v3/prog_index.m3u8" -c copy -bsf:a aac_adtstoasc ricky.mp4

    The output I get:

    Code:
    _14_S14E07-v2-11148597/segments/CBC_RICK_MERCER_SEASON_14_S14E07_v3/prog_index.m
    3u8" -c copy -bsf:a aac_adtstoasc ricky.mp4
    ffmpeg version 3.2 Copyright (c) 2000-2016 the FFmpeg developers
      built with gcc 5.4.0 (GCC)
      configuration: --enable-gpl --enable-version3 --disable-w32threads --enable-dx
    va2 --enable-libmfx --enable-nvenc --enable-avisynth --enable-bzlib --enable-lib
    ebur128 --enable-fontconfig --enable-frei0r --enable-gnutls --enable-iconv --ena
    ble-libass --enable-libbluray --enable-libbs2b --enable-libcaca --enable-libfree
    type --enable-libgme --enable-libgsm --enable-libilbc --enable-libmodplug --enab
    le-libmp3lame --enable-libopencore-amrnb --enable-libopencore-amrwb --enable-lib
    openh264 --enable-libopenjpeg --enable-libopus --enable-librtmp --enable-libschr
    oedinger --enable-libsnappy --enable-libsoxr --enable-libspeex --enable-libtheor
    a --enable-libtwolame --enable-libvidstab --enable-libvo-amrwbenc --enable-libvo
    rbis --enable-libvpx --enable-libwavpack --enable-libwebp --enable-libx264 --ena
    ble-libx265 --enable-libxavs --enable-libxvid --enable-libzimg --enable-lzma --e
    nable-decklink --enable-zlib
      libavutil      55. 34.100 / 55. 34.100
      libavcodec     57. 64.100 / 57. 64.100
      libavformat    57. 56.100 / 57. 56.100
      libavdevice    57.  1.100 / 57.  1.100
      libavfilter     6. 65.100 /  6. 65.100
      libswscale      4.  2.100 /  4.  2.100
      libswresample   2.  3.100 /  2.  3.100
      libpostproc    54.  1.100 / 54.  1.100
    Input #0, hls,applehttp, from 'http://v.watch.cbc.ca/p//38e815a-00b422de4bc//CBC
    _RICK_MERCER_SEASON_14_S14E07-v2-11148597/segments/CBC_RICK_MERCER_SEASON_14_S14
    E07_v3/prog_index.m3u8':
      Duration: 00:21:55.25, start: 10.000000, bitrate: 0 kb/s
      Program 0
        Metadata:
          variant_bitrate : 0
        Stream #0:0: Video: h264 (Constrained Baseline) ([27][0][0][0] / 0x001B), yu
    v420p, 416x234 [SAR 1:1 DAR 16:9], Closed Captions, 29.97 fps, 29.97 tbr, 90k tb
    n, 59.94 tbc
        Metadata:
          variant_bitrate : 0
    Output #0, mp4, to 'ricky.mp4':
      Metadata:
        encoder         : Lavf57.56.100
        Stream #0:0: Video: h264 (Constrained Baseline) ([33][0][0][0] / 0x0021), yu
    v420p, 416x234 [SAR 1:1 DAR 16:9], q=2-31, 29.97 fps, 29.97 tbr, 90k tbn, 90k tb
    c
        Metadata:
          variant_bitrate : 0
    Stream mapping:
      Stream #0:0 -> #0:0 (copy)
    Press [q] to stop, [?] for help
    frame=  283 fps=0.0 q=-1.0 size=     470kB time=00:00:09.40 bitrate= 409.6kbits/
    frame=  540 fps=413 q=-1.0 size=     887kB time=00:00:17.98 bitrate= 404.0kbits/
    frame=  753 fps=415 q=-1.0 size=    1227kB time=00:00:25.09 bitrate= 400.6kbits/
    frame=  870 fps=365 q=-1.0 size=    1424kB time=00:00:28.99 bitrate= 402.2kbits/
    frame= 1080 fps=365 q=-1.0 size=    1769kB time=00:00:36.00 bitrate= 402.4kbits/
    frame= 1266 fps=366 q=-1.0 size=    2077kB time=00:00:42.20 bitrate= 403.1kbits/
    frame= 1403 fps=342 q=-1.0 size=    2291kB time=00:00:46.78 bitrate= 401.3kbits/
    frame= 1620 fps=340 q=-1.0 size=    2642kB time=00:00:54.02 bitrate= 400.7kbits/
    frame= 1790 fps=335 q=-1.0 size=    2921kB time=00:00:59.69 bitrate= 400.9kbits/
    frame= 1900 fps=324 q=-1.0 size=    3109kB time=00:01:03.36 bitrate= 401.9kbits/
    frame= 2160 fps=309 q=-1.0 size=    3527kB time=00:01:12.03 bitrate= 401.1kbits/
    frame= 2198 fps=291 q=-1.0 size=    3589kB time=00:01:13.30 bitrate= 401.1kbits/
    frame= 2297 fps=285 q=-1.0 size=    3745kB time=00:01:16.60 bitrate= 400.5kbits/
    frame= 2430 fps=278 q=-1.0 size=    3958kB time=00:01:21.04 bitrate= 400.0kbits/
    frame= 2558 fps=275 q=-1.0 size=    4175kB time=00:01:25.31 bitrate= 400.9kbits/
    frame= 2700 fps=272 q=-1.0 size=    4404kB time=00:01:30.05 bitrate= 400.6kbits/
    frame= 2886 fps=277 q=-1.0 size=    4713kB time=00:01:36.26 bitrate= 401.1kbits/
    frame= 3023 fps=274 q=-1.0 size=    4937kB time=00:01:40.83 bitrate= 401.1kbits/
    frame= 3240 fps=278 q=-1.0 size=    5285kB time=00:01:48.07 bitrate= 400.6kbits/
    frame= 3447 fps=283 q=-1.0 size=    5625kB time=00:01:54.98 bitrate= 400.8kbits/
    frame= 3562 fps=279 q=-1.0 size=    5821kB time=00:01:58.81 bitrate= 401.3kbits/
    frame= 3780 fps=276 q=-1.0 size=    6160kB time=00:02:06.09 bitrate= 400.2kbits/
    frame= 3978 fps=280 q=-1.0 size=    6491kB time=00:02:12.69 bitrate= 400.7kbits/
    frame= 4061 fps=275 q=-1.0 size=    6634kB time=00:02:15.46 bitrate= 401.2kbits/
    frame= 4320 fps=279 q=-1.0 size=    7044kB time=00:02:24.11 bitrate= 400.4kbits/
    frame= 4524 fps=282 q=-1.0 size=    7385kB time=00:02:30.91 bitrate= 400.9kbits/
    frame= 4644 fps=273 q=-1.0 size=    7582kB time=00:02:34.92 bitrate= 400.9kbits/
    frame= 4821 fps=275 q=-1.0 size=    7860kB time=00:02:40.82 bitrate= 400.3kbits/
    frame= 4891 fps=270 q=-1.0 size=    7980kB time=00:02:43.16 bitrate= 400.6kbits/
    frame= 5130 fps=274 q=-1.0 size=    8358kB time=00:02:51.13 bitrate= 400.1kbits/
    frame= 5329 fps=277 q=-1.0 size=    8699kB time=00:02:57.77 bitrate= 400.8kbits/
    frame= 5400 fps=269 q=-1.0 size=    8798kB time=00:03:00.14 bitrate= 400.1kbits/
    frame= 5597 fps=272 q=-1.0 size=    9138kB time=00:03:06.71 bitrate= 400.9kbits/
    frame= 5718 fps=270 q=-1.0 size=    9331kB time=00:03:10.75 bitrate= 400.7kbits/
    frame= 5940 fps=268 q=-1.0 size=    9682kB time=00:03:18.16 bitrate= 400.2kbits/
    frame= 6122 fps=270 q=-1.0 size=    9991kB time=00:03:24.23 bitrate= 400.7kbits/
    frame= 6268 fps=269 q=-1.0 size=   10224kB time=00:03:29.10 bitrate= 400.5kbits/
    frame= 6480 fps=271 q=-1.0 size=   10572kB time=00:03:36.18 bitrate= 400.6kbits/
    frame= 6650 fps=273 q=-1.0 size=   10851kB time=00:03:41.85 bitrate= 400.7kbits/
    frame= 6760 fps=271 q=-1.0 size=   11029kB time=00:03:45.52 bitrate= 400.6kbits/
    frame= 6952 fps=273 q=-1.0 size=   11338kB time=00:03:51.93 bitrate= 400.5kbits/
    frame= 7082 fps=272 q=-1.0 size=   11540kB time=00:03:56.26 bitrate= 400.1kbits/
    frame= 7290 fps=268 q=-1.0 size=   11879kB time=00:04:03.20 bitrate= 400.1kbits/
    frame= 7338 fps=265 q=-1.0 size=   11973kB time=00:04:04.81 bitrate= 400.7kbits/
    frame= 7560 fps=265 q=-1.0 size=   12327kB time=00:04:12.21 bitrate= 400.4kbits/
    frame= 7745 fps=267 q=-1.0 size=   12636kB time=00:04:18.39 bitrate= 400.6kbits/
    frame= 7849 fps=266 q=-1.0 size=   12806kB time=00:04:21.86 bitrate= 400.6kbits/
    frame= 8075 fps=269 q=-1.0 size=   13175kB time=00:04:29.40 bitrate= 400.6kbits/
    frame= 8134 fps=267 q=-1.0 size=   13272kB time=00:04:31.37 bitrate= 400.7kbits/
    frame= 8370 fps=268 q=-1.0 size=   13642kB time=00:04:39.24 bitrate= 400.2kbits/
    frame= 8498 fps=268 q=-1.0 size=   13859kB time=00:04:43.51 bitrate= 400.5kbits/
    frame= 8655 fps=268 q=-1.0 size=   14122kB time=00:04:48.75 bitrate= 400.6kbits/
    frame= 8910 fps=270 q=-1.0 size=   14531kB time=00:04:57.26 bitrate= 400.4kbits/
    frame= 9116 fps=272 q=-1.0 size=   14871kB time=00:05:04.13 bitrate= 400.6kbits/
    frame= 9232 fps=270 q=-1.0 size=   15064kB time=00:05:08.00 bitrate= 400.7kbits/
    frame= 9450 fps=272 q=-1.0 size=   15406kB time=00:05:15.28 bitrate= 400.3kbits/
    frame= 9618 fps=273 q=-1.0 size=   15684kB time=00:05:20.88 bitrate= 400.4kbits/
    frame= 9768 fps=273 q=-1.0 size=   15932kB time=00:05:25.89 bitrate= 400.5kbits/
    frame= 9990 fps=275 q=-1.0 size=   16287kB time=00:05:33.29 bitrate= 400.3kbits/
    frame=10025 fps=271 q=-1.0 size=   16349kB time=00:05:34.46 bitrate= 400.4kbits/
    frame=10120 fps=269 q=-1.0 size=   16503kB time=00:05:37.63 bitrate= 400.4kbits/
    frame=10276 fps=270 q=-1.0 size=   16761kB time=00:05:42.84 bitrate= 400.5kbits/
    frame=10530 fps=271 q=-1.0 size=   17158kB time=00:05:51.31 bitrate= 400.1kbits/
    frame=10715 fps=272 q=-1.0 size=   17468kB time=00:05:57.49 bitrate= 400.3kbits/
    frame=10800 fps=270 q=-1.0 size=   17607kB time=00:06:00.32 bitrate= 400.3kbits/
    frame=11002 fps=271 q=-1.0 size=   17947kB time=00:06:07.06 bitrate= 400.5kbits/
    frame=11082 fps=270 q=-1.0 size=   18078kB time=00:06:09.73 bitrate= 400.6kbits/
    frame=11340 fps=271 q=-1.0 size=   18487kB time=00:06:18.34 bitrate= 400.3kbits/
    frame=11515 fps=272 q=-1.0 size=   18765kB time=00:06:24.18 bitrate= 400.1kbits/
    frame=11637 fps=271 q=-1.0 size=   18980kB time=00:06:28.25 bitrate= 400.5kbits/
    frame=11836 fps=273 q=-1.0 size=   19290kB time=00:06:34.89 bitrate= 400.2kbits/
    frame=11927 fps=271 q=-1.0 size=   19451kB time=00:06:37.93 bitrate= 400.4kbits/
    frame=12150 fps=273 q=-1.0 size=   19807kB time=00:06:45.37 bitrate= 400.3kbits/
    frame=12302 fps=272 q=-1.0 size=   20054kB time=00:06:50.44 bitrate= 400.3kbits/
    frame=12435 fps=272 q=-1.0 size=   20280kB time=00:06:54.88 bitrate= 400.4kbits/
    frame=12690 fps=273 q=-1.0 size=   20680kB time=00:07:03.38 bitrate= 400.1kbits/
    frame=12732 fps=271 q=-1.0 size=   20756kB time=00:07:04.79 bitrate= 400.3kbits/
    frame=12856 fps=270 q=-1.0 size=   20959kB time=00:07:08.92 bitrate= 400.3kbits/
    frame=13012 fps=270 q=-1.0 size=   21217kB time=00:07:14.13 bitrate= 400.4kbits/
    frame=13230 fps=271 q=-1.0 size=   21563kB time=00:07:21.40 bitrate= 400.2kbits/
    frame=13413 fps=272 q=-1.0 size=   21872kB time=00:07:27.51 bitrate= 400.4kbits/
    frame=13552 fps=272 q=-1.0 size=   22094kB time=00:07:32.15 bitrate= 400.3kbits/
    frame=13770 fps=272 q=-1.0 size=   22454kB time=00:07:39.42 bitrate= 400.4kbits/
    frame=13923 fps=272 q=-1.0 size=   22701kB time=00:07:44.53 bitrate= 400.3kbits/
    frame=14056 fps=272 q=-1.0 size=   22922kB time=00:07:48.96 bitrate= 400.4kbits/
    frame=14310 fps=273 q=-1.0 size=   23321kB time=00:07:57.44 bitrate= 400.1kbits/
    frame=14474 fps=273 q=-1.0 size=   23600kB time=00:08:02.91 bitrate= 400.3kbits/
    frame=14636 fps=273 q=-1.0 size=   23864kB time=00:08:08.32 bitrate= 400.3kbits/
    frame=14850 fps=274 q=-1.0 size=   24212kB time=00:08:15.46 bitrate= 400.3kbits/
    frame=15018 fps=275 q=-1.0 size=   24489kB time=00:08:21.06 bitrate= 400.4kbits/
    frame=15172 fps=274 q=-1.0 size=   24740kB time=00:08:26.20 bitrate= 400.4kbits/
    frame=15390 fps=275 q=-1.0 size=   25079kB time=00:08:33.47 bitrate= 400.1kbits/
    frame=15589 fps=276 q=-1.0 size=   25419kB time=00:08:40.11 bitrate= 400.4kbits/
    frame=15660 fps=273 q=-1.0 size=   25533kB time=00:08:42.48 bitrate= 400.3kbits/
    frame=15795 fps=273 q=-1.0 size=   25751kB time=00:08:46.99 bitrate= 400.3kbits/
    frame=15930 fps=272 q=-1.0 size=   25973kB time=00:08:51.49 bitrate= 400.3kbits/
    frame=16118 fps=273 q=-1.0 size=   26282kB time=00:08:57.77 bitrate= 400.4kbits/
    frame=16200 fps=272 q=-1.0 size=   26412kB time=00:09:00.50 bitrate= 400.3kbits/
    frame=16389 fps=272 q=-1.0 size=   26722kB time=00:09:06.81 bitrate= 400.3kbits/
    frame=16525 fps=272 q=-1.0 size=   26944kB time=00:09:11.35 bitrate= 400.3kbits/
    frame=16740 fps=272 q=-1.0 size=   27293kB time=00:09:18.52 bitrate= 400.3kbits/
    frame=16930 fps=273 q=-1.0 size=   27602kB time=00:09:24.86 bitrate= 400.3kbits/
    frame=17010 fps=272 q=-1.0 size=   27736kB time=00:09:27.53 bitrate= 400.3kbits/
    frame=17198 fps=272 q=-1.0 size=   28044kB time=00:09:33.80 bitrate= 400.4kbits/
    frame=17312 fps=272 q=-1.0 size=   28221kB time=00:09:37.61 bitrate= 400.3kbits/
    frame=17550 fps=273 q=-1.0 size=   28603kB time=00:09:45.55 bitrate= 400.2kbits/
    frame=17742 fps=273 q=-1.0 size=   28912kB time=00:09:51.95 bitrate= 400.1kbits/
    frame=17876 fps=273 q=-1.0 size=   29136kB time=00:09:56.42 bitrate= 400.2kbits/
    frame=18090 fps=273 q=-1.0 size=   29489kB time=00:10:03.56 bitrate= 400.2kbits/
    frame=18220 fps=272 q=-1.0 size=   29705kB time=00:10:07.90 bitrate= 400.3kbits/
    frame=18360 fps=272 q=-1.0 size=   29930kB time=00:10:12.57 bitrate= 400.3kbits/
    frame=18519 fps=272 q=-1.0 size=   30178kB time=00:10:17.88 bitrate= 400.1kbits/
    frame=18630 fps=271 q=-1.0 size=   30359kB time=00:10:21.58 bitrate= 400.1kbits/
    frame=18752 fps=271 q=-1.0 size=   30576kB time=00:10:25.65 bitrate= 400.3kbits/
    frame=18919 fps=271 q=-1.0 size=   30830kB time=00:10:31.23 bitrate= 400.1kbits/
    frame=19147 fps=272 q=-1.0 size=   31202kB time=00:10:38.83 bitrate= 400.1kbits/
    frame=19223 fps=271 q=-1.0 size=   31343kB time=00:10:41.37 bitrate= 400.3kbits/
    frame=19440 fps=271 q=-1.0 size=   31690kB time=00:10:48.61 bitrate= 400.2kbits/
    frame=19625 fps=272 q=-1.0 size=   31999kB time=00:10:54.78 bitrate= 400.3kbits/
    frame=19767 fps=272 q=-1.0 size=   32226kB time=00:10:59.52 bitrate= 400.3kbits/
    frame=19980 fps=272 q=-1.0 size=   32574kB time=00:11:06.63 bitrate= 400.3kbits/
    frame=20150 fps=273 q=-1.0 size=   32853kB time=00:11:12.30 bitrate= 400.3kbits/
    frame=20302 fps=273 q=-1.0 size=   33098kB time=00:11:17.37 bitrate= 400.3kbits/
    frame=20520 fps=273 q=-1.0 size=   33452kB time=00:11:24.65 bitrate= 400.3kbits/
    frame=20728 fps=274 q=-1.0 size=   33791kB time=00:11:31.59 bitrate= 400.3kbits/
    frame=20846 fps=274 q=-1.0 size=   33985kB time=00:11:35.52 bitrate= 400.3kbits/
    frame=21060 fps=273 q=-1.0 size=   34333kB time=00:11:42.66 bitrate= 400.3kbits/
    frame=21153 fps=272 q=-1.0 size=   34488kB time=00:11:45.77 bitrate= 400.3kbits/
    frame=21330 fps=272 q=-1.0 size=   34764kB time=00:11:51.67 bitrate= 400.2kbits/
    frame=21511 fps=272 q=-1.0 size=   35073kB time=00:11:57.71 bitrate= 400.3kbits/
    frame=21600 fps=272 q=-1.0 size=   35213kB time=00:12:00.68 bitrate= 400.3kbits/
    frame=21751 fps=272 q=-1.0 size=   35459kB time=00:12:05.72 bitrate= 400.3kbits/
    frame=21889 fps=271 q=-1.0 size=   35681kB time=00:12:10.32 bitrate= 400.2kbits/
    frame=22095 fps=272 q=-1.0 size=   36021kB time=00:12:17.20 bitrate= 400.3kbits/
    frame=22176 fps=271 q=-1.0 size=   36156kB time=00:12:19.90 bitrate= 400.3kbits/
    frame=22410 fps=272 q=-1.0 size=   36529kB time=00:12:27.71 bitrate= 400.2kbits/
    frame=22614 fps=272 q=-1.0 size=   36869kB time=00:12:34.52 bitrate= 400.3kbits/
    frame=22680 fps=272 q=-1.0 size=   36964kB time=00:12:36.72 bitrate= 400.2kbits/
    frame=22826 fps=272 q=-1.0 size=   37212kB time=00:12:41.59 bitrate= 400.3kbits/
    frame=22950 fps=271 q=-1.0 size=   37414kB time=00:12:45.73 bitrate= 400.3kbits/
    frame=23107 fps=272 q=-1.0 size=   37663kB time=00:12:50.97 bitrate= 400.2kbits/
    frame=23220 fps=271 q=-1.0 size=   37851kB time=00:12:54.74 bitrate= 400.2kbits/
    frame=23407 fps=272 q=-1.0 size=   38160kB time=00:13:00.98 bitrate= 400.3kbits/
    frame=23490 fps=270 q=-1.0 size=   38290kB time=00:13:03.74 bitrate= 400.2kbits/
    frame=23525 fps=268 q=-1.0 size=   38352kB time=00:13:04.91 bitrate= 400.3kbits/
    frame=23641 fps=268 q=-1.0 size=   38537kB time=00:13:08.78 bitrate= 400.2kbits/
    frame=23760 fps=268 q=-1.0 size=   38730kB time=00:13:12.75 bitrate= 400.2kbits/
    frame=23946 fps=268 q=-1.0 size=   39040kB time=00:13:18.96 bitrate= 400.3kbits/
    frame=24030 fps=267 q=-1.0 size=   39173kB time=00:13:21.76 bitrate= 400.2kbits/
    frame=24241 fps=268 q=-1.0 size=   39514kB time=00:13:28.80 bitrate= 400.2kbits/
    frame=24355 fps=267 q=-1.0 size=   39707kB time=00:13:32.61 bitrate= 400.3kbits/
    frame=24570 fps=268 q=-1.0 size=   40044kB time=00:13:39.78 bitrate= 400.2kbits/
    frame=24737 fps=268 q=-1.0 size=   40322kB time=00:13:45.35 bitrate= 400.2kbits/
    frame=24894 fps=268 q=-1.0 size=   40582kB time=00:13:50.59 bitrate= 400.3kbits/
    frame=25110 fps=269 q=-1.0 size=   40931kB time=00:13:57.80 bitrate= 400.2kbits/
    frame=25287 fps=269 q=-1.0 size=   41210kB time=00:14:03.70 bitrate= 400.1kbits/
    frame=25380 fps=268 q=-1.0 size=   41378kB time=00:14:06.81 bitrate= 400.3kbits/
    frame=25535 fps=268 q=-1.0 size=   41625kB time=00:14:11.98 bitrate= 400.2kbits/
    frame=25650 fps=268 q=-1.0 size=   41813kB time=00:14:15.82 bitrate= 400.2kbits/
    frame=25839 fps=268 q=-1.0 size=   42122kB time=00:14:22.12 bitrate= 400.2kbits/
    frame=25920 fps=267 q=-1.0 size=   42250kB time=00:14:24.83 bitrate= 400.2kbits/
    frame=25974 fps=266 q=-1.0 size=   42343kB time=00:14:26.63 bitrate= 400.3kbits/
    frame=26087 fps=266 q=-1.0 size=   42529kB time=00:14:30.40 bitrate= 400.3kbits/
    frame=26205 fps=266 q=-1.0 size=   42720kB time=00:14:34.34 bitrate= 400.3kbits/
    frame=26460 fps=266 q=-1.0 size=   43131kB time=00:14:42.84 bitrate= 400.2kbits/
    frame=26629 fps=266 q=-1.0 size=   43410kB time=00:14:48.48 bitrate= 400.3kbits/
    frame=26785 fps=266 q=-1.0 size=   43664kB time=00:14:53.69 bitrate= 400.2kbits/
    frame=27000 fps=266 q=-1.0 size=   44018kB time=00:15:00.86 bitrate= 400.3kbits/
    frame=27211 fps=266 q=-1.0 size=   44358kB time=00:15:07.90 bitrate= 400.2kbits/
    frame=27326 fps=266 q=-1.0 size=   44549kB time=00:15:11.74 bitrate= 400.3kbits/
    frame=27540 fps=266 q=-1.0 size=   44894kB time=00:15:18.88 bitrate= 400.2kbits/
    frame=27730 fps=267 q=-1.0 size=   45203kB time=00:15:25.22 bitrate= 400.2kbits/
    frame=27828 fps=266 q=-1.0 size=   45363kB time=00:15:28.49 bitrate= 400.2kbits/
    frame=28080 fps=266 q=-1.0 size=   45773kB time=00:15:36.90 bitrate= 400.2kbits/
    frame=28212 fps=266 q=-1.0 size=   45990kB time=00:15:41.30 bitrate= 400.2kbits/
    frame=28350 fps=265 q=-1.0 size=   46215kB time=00:15:45.91 bitrate= 400.2kbits/
    frame=28445 fps=264 q=-1.0 size=   46370kB time=00:15:49.08 bitrate= 400.2kbits/
    frame=28620 fps=263 q=-1.0 size=   46655kB time=00:15:54.92 bitrate= 400.2kbits/
    frame=28772 fps=264 q=-1.0 size=   46902kB time=00:15:59.99 bitrate= 400.2kbits/
    frame=28904 fps=263 q=-1.0 size=   47120kB time=00:16:04.39 bitrate= 400.3kbits/
    frame=29160 fps=263 q=-1.0 size=   47537kB time=00:16:12.93 bitrate= 400.3kbits/
    frame=29352 fps=263 q=-1.0 size=   47847kB time=00:16:19.34 bitrate= 400.2kbits/
    frame=29449 fps=263 q=-1.0 size=   48005kB time=00:16:22.58 bitrate= 400.2kbits/
    frame=29700 fps=264 q=-1.0 size=   48417kB time=00:16:30.95 bitrate= 400.2kbits/
    frame=29890 fps=264 q=-1.0 size=   48726kB time=00:16:37.29 bitrate= 400.2kbits/
    frame=30025 fps=264 q=-1.0 size=   48948kB time=00:16:41.80 bitrate= 400.3kbits/
    frame=30240 fps=264 q=-1.0 size=   49297kB time=00:16:48.97 bitrate= 400.2kbits/
    [mp4 @ 0000000002709140] Non-monotonous DTS in output stream 0:0; previous: 9140
    5314, current: 91405314; changing to 91405315. This may result in incorrect time
    stamps in the output file.
    frame=30440 fps=265 q=-1.0 size=   49615kB time=00:16:55.64 bitrate= 400.2kbits/
    frame=30565 fps=264 q=-1.0 size=   49822kB time=00:16:59.81 bitrate= 400.2kbits/
    frame=30780 fps=265 q=-1.0 size=   50174kB time=00:17:06.99 bitrate= 400.2kbits/
    frame=30912 fps=264 q=-1.0 size=   50390kB time=00:17:11.39 bitrate= 400.2kbits/
    frame=31050 fps=264 q=-1.0 size=   50612kB time=00:17:16.00 bitrate= 400.2kbits/
    frame=31180 fps=264 q=-1.0 size=   50829kB time=00:17:20.33 bitrate= 400.2kbits/
    frame=31336 fps=264 q=-1.0 size=   51086kB time=00:17:25.54 bitrate= 400.3kbits/
    frame=31590 fps=264 q=-1.0 size=   51484kB time=00:17:34.01 bitrate= 400.1kbits/
    frame=31793 fps=265 q=-1.0 size=   51825kB time=00:17:40.79 bitrate= 400.2kbits/
    frame=31914 fps=265 q=-1.0 size=   52026kB time=00:17:44.83 bitrate= 400.2kbits/
    frame=32130 fps=265 q=-1.0 size=   52377kB time=00:17:52.03 bitrate= 400.2kbits/
    frame=32340 fps=266 q=-1.0 size=   52718kB time=00:17:59.04 bitrate= 400.2kbits/
    frame=32400 fps=265 q=-1.0 size=   52812kB time=00:18:01.04 bitrate= 400.2kbits/
    frame=32607 fps=265 q=-1.0 size=   53153kB time=00:18:07.95 bitrate= 400.2kbits/
    frame=32726 fps=265 q=-1.0 size=   53347kB time=00:18:11.92 bitrate= 400.2kbits/
    frame=32940 fps=265 q=-1.0 size=   53694kB time=00:18:19.06 bitrate= 400.2kbits/
    frame=33149 fps=266 q=-1.0 size=   54034kB time=00:18:26.03 bitrate= 400.2kbits/
    frame=33228 fps=265 q=-1.0 size=   54164kB time=00:18:28.67 bitrate= 400.2kbits/
    frame=33480 fps=266 q=-1.0 size=   54574kB time=00:18:37.08 bitrate= 400.2kbits/
    frame=33686 fps=266 q=-1.0 size=   54914kB time=00:18:43.95 bitrate= 400.2kbits/
    frame=33750 fps=265 q=-1.0 size=   55010kB time=00:18:46.09 bitrate= 400.2kbits/
    frame=33877 fps=265 q=-1.0 size=   55227kB time=00:18:50.32 bitrate= 400.3kbits/
    frame=34020 fps=265 q=-1.0 size=   55457kB time=00:18:55.10 bitrate= 400.2kbits/
    frame=34229 fps=265 q=-1.0 size=   55796kB time=00:19:02.07 bitrate= 400.2kbits/
    frame=34290 fps=264 q=-1.0 size=   55891kB time=00:19:04.10 bitrate= 400.2kbits/
    frame=34477 fps=264 q=-1.0 size=   56200kB time=00:19:10.34 bitrate= 400.2kbits/
    frame=34614 fps=264 q=-1.0 size=   56423kB time=00:19:14.92 bitrate= 400.2kbits/
    frame=34830 fps=264 q=-1.0 size=   56771kB time=00:19:22.12 bitrate= 400.2kbits/
    frame=35037 fps=264 q=-1.0 size=   57111kB time=00:19:29.03 bitrate= 400.2kbits/
    frame=35156 fps=264 q=-1.0 size=   57307kB time=00:19:33.00 bitrate= 400.2kbits/
    frame=35370 fps=264 q=-1.0 size=   57660kB time=00:19:40.14 bitrate= 400.2kbits/
    frame=35544 fps=265 q=-1.0 size=   57938kB time=00:19:45.95 bitrate= 400.2kbits/
    frame=35699 fps=265 q=-1.0 size=   58192kB time=00:19:51.12 bitrate= 400.2kbits/
    frame=35910 fps=265 q=-1.0 size=   58535kB time=00:19:58.16 bitrate= 400.2kbits/
    frame=36118 fps=265 q=-1.0 size=   58876kB time=00:20:05.10 bitrate= 400.2kbits/
    frame=36232 fps=264 q=-1.0 size=   59060kB time=00:20:08.90 bitrate= 400.2kbits/
    frame=36402 fps=264 q=-1.0 size=   59339kB time=00:20:14.58 bitrate= 400.2kbits/
    frame=36504 fps=264 q=-1.0 size=   59503kB time=00:20:17.98 bitrate= 400.2kbits/
    frame=36720 fps=265 q=-1.0 size=   59852kB time=00:20:25.19 bitrate= 400.2kbits/
    frame=36904 fps=265 q=-1.0 size=   60157kB time=00:20:31.33 bitrate= 400.2kbits/
    frame=37046 fps=265 q=-1.0 size=   60389kB time=00:20:36.06 bitrate= 400.2kbits/
    frame=37260 fps=265 q=-1.0 size=   60733kB time=00:20:43.20 bitrate= 400.2kbits/
    frame=37466 fps=266 q=-1.0 size=   61073kB time=00:20:50.08 bitrate= 400.2kbits/
    frame=37568 fps=265 q=-1.0 size=   61238kB time=00:20:53.48 bitrate= 400.2kbits/
    frame=37800 fps=265 q=-1.0 size=   61612kB time=00:21:01.22 bitrate= 400.2kbits/
    frame=37950 fps=265 q=-1.0 size=   61860kB time=00:21:06.23 bitrate= 400.2kbits/
    frame=38088 fps=265 q=-1.0 size=   62085kB time=00:21:10.83 bitrate= 400.2kbits/
    frame=38335 fps=266 q=-1.0 size=   62488kB time=00:21:19.07 bitrate= 400.2kbits/
    frame=38397 fps=265 q=-1.0 size=   62587kB time=00:21:21.14 bitrate= 400.2kbits/
    frame=38610 fps=266 q=-1.0 size=   62933kB time=00:21:28.25 bitrate= 400.2kbits/
    frame=38855 fps=266 q=-1.0 size=   63336kB time=00:21:36.42 bitrate= 400.2kbits/
    frame=38895 fps=266 q=-1.0 size=   63403kB time=00:21:37.76 bitrate= 400.2kbits/
    frame=38935 fps=265 q=-1.0 size=   63465kB time=00:21:39.09 bitrate= 400.2kbits/
    frame=39085 fps=265 q=-1.0 size=   63713kB time=00:21:44.10 bitrate= 400.2kbits/
    frame=39169 fps=265 q=-1.0 size=   63851kB time=00:21:46.90 bitrate= 400.2kbits/
    frame=39330 fps=264 q=-1.0 size=   64114kB time=00:21:52.27 bitrate= 400.2kbits/
    frame=39418 fps=264 q=-1.0 Lsize=   64395kB time=00:21:55.21 bitrate= 401.1kbits
    /s speed= 8.8x
    video:64621kB audio:0kB subtitle:0kB other streams:0kB global headers:0kB muxing
     overhead: unknown
    Last edited by nick9826; 24th Nov 2016 at 11:37.
    Quote Quote  



Similar Threads