VideoHelp Forum

Our website is made possible by displaying online advertisements to our visitors. Consider supporting us by disable your adblocker or Try ConvertXtoDVD and convert all your movies to DVD. Free trial ! :)
+ Reply to Thread
Results 1 to 8 of 8
Thread
  1. Member
    Join Date
    Oct 2016
    Location
    Minnesota
    Search Comp PM
    I am trying to move some videos from VHS tapes to DVD so I can throw away the tapes. I have captured the videos and edited them down as much as possible. I also split them
    into pieces so I can have menus on the DVD I'm trying to make and skip to the piece I want to watch or just "play all". I'm doing this on Linux Mint 17.3 (?) but can also use Windows 7 if need be. I finally got projects ready to burn with Bombono and DVD Styler.

    Bombono gets avconv failure: exit code = 1 when I go to burn the DVD

    Dvd Styler Crashes when I try to burn the project ( the window disappears then nothing else appears to be happening )

    I got them both from the repository so you'd think they install any other packages needed. The video is a bit shaky when I play the captured mpg files on any of my computers
    so I am also hoping there is some way to stabilize that in the final product. I would like to get Bombono and Styler to work first though. I'm sure I will have more questions later
    since I'm New to video editing/authoring.
    Quote Quote  
  2. Never used Bombono but it appears it chrashes during re-encoding (avconv).

    I've no idea where in the proces DVDStyler chrashes (re-encoding, authoring, burning) but the file dvdstyler.log could provide the info.

    For both: Start by making an iso image or a DVD folder structure and test it in a software player.

    I also split them into pieces so I can have menus
    You could use chapters for that.
    Quote Quote  
  3. Member
    Join Date
    Oct 2016
    Location
    Minnesota
    Search Comp PM
    Thanks for reading my post

    Bombono crashes with the same error when I try iso or folder. DVDStyler, the window just disappears, iso or folder just as before when I click start to begin the process.
    I searched for dvdstyler.log but did not find it. I split them into separate mpg files 'cause I didn't know how to do chapters.
    Quote Quote  
  4. I searched for dvdstyler.log but did not find it.
    It should be in your "Temp directory" (if created at all)

    Click image for larger version

Name:	TempDir.png
Views:	148
Size:	16.1 KB
ID:	39219
    Quote Quote  
  5. Member
    Join Date
    Oct 2016
    Location
    Minnesota
    Search Comp PM
    Sorry about taking so long to get back to this, I was out of town. I found dvdstyler.log
    ------------------------------------------------------------------------------------------
    DVDStyler v2.5.2
    Linux 3.13.0-24-generic x86_64
    Libav: libavformat 54.20.3, libavcodec 54.35.0, libavutil 52.3.0
    Prepare
    Cleaning temporary directory
    Search for transcoded files in cache
    Generating menus
    Generating menu 1 of 2
    Create menu MPEG
    -----------------------------------------------------------------------------------------
    I clicked on details in Bombono and saw lots of stuff - looks like Bombono get farther along before it quits. It's a lot of stuff so will try to attach
    a text file that has the info.
    Quote Quote  
  6. Member
    Join Date
    Oct 2016
    Location
    Minnesota
    Search Comp PM
    Uploading may not have worked, will just paste the stuff from Bombono
    --------------------------------------------------------------------------
    #
    # Build DVD-Video in folder: /home/sam/.cache/bombono-dvd-video
    #

    0: avconv -i "/home/sam/Desktop/Lecture_1.mpg" -target ntsc-dvd -g 18 -b 6000000 -maxrate 9000000 -minrate 0 -bufsize 1835008 -packetsize 2048 -muxrate 10080000 -b:a 448000 -aspect 4:3 -s 720x480 -b 5000k -b:a 320k -y -mbd rd -trellis 2 -cmp 2 -subcmp 2 -vcodec copy -threads 2 -map 0:v:0 -map 0:a -pass 1 -passlogfile "/home/sam/.cache/bombono-dvd-video/1.Lecture_1.mpg.mpg.vlog" "/dev/null"
    0: avconv version 9.18-6:9.18-0ubuntu0.14.04.1, Copyright (c) 2000-2014 the Libav developers
    0: built on Mar 16 2015 13:19:10 with gcc 4.8 (Ubuntu 4.8.2-19ubuntu1)
    1: avconv -i "/home/sam/Desktop/Lecture_2.mpg" -target ntsc-dvd -g 18 -b 6000000 -maxrate 9000000 -minrate 0 -bufsize 1835008 -packetsize 2048 -muxrate 10080000 -b:a 448000 -aspect 4:3 -s 720x480 -b 5000k -b:a 320k -y -mbd rd -trellis 2 -cmp 2 -subcmp 2 -vcodec copy -threads 2 -pass 1 -passlogfile "/home/sam/.cache/bombono-dvd-video/2.Lecture_2.mpg.mpg.vlog" "/dev/null"
    0: [mpeg @ 0x8e1300] Non-increasing DTS in stream 0: packet 13 with DTS 62238, packet 14 with DTS 59235
    0: [mpeg @ 0x8e1300] Non-increasing DTS in stream 0: packet 16 with DTS 71247, packet 17 with DTS 68244
    0: [mpeg @ 0x8e1300] Non-increasing DTS in stream 0: packet 19 with DTS 80256, packet 20 with DTS 77253
    0: [mpeg @ 0x8e1300] Non-increasing DTS in stream 0: packet 22 with DTS 89265, packet 23 with DTS 86262
    0: [mpeg @ 0x8e1300] Non-increasing DTS in stream 0: packet 25 with DTS 98274, packet 26 with DTS 95271
    0: [mpeg @ 0x8e1300] Non-increasing DTS in stream 0: packet 28 with DTS 107283, packet 29 with DTS 104280
    0: [mpeg @ 0x8e1300] Non-increasing DTS in stream 0: packet 31 with DTS 116292, packet 32 with DTS 113289
    0: [mpeg @ 0x8e1300] Non-increasing DTS in stream 0: packet 34 with DTS 125301, packet 35 with DTS 122298
    0: [mpeg @ 0x8e1300] Non-increasing DTS in stream 0: packet 37 with DTS 134310, packet 38 with DTS 131307
    0: [mpeg @ 0x8e1300] Non-increasing DTS in stream 0: packet 40 with DTS 143319, packet 41 with DTS 140316
    0: [mpeg @ 0x8e1300] Non-increasing DTS in stream 0: packet 43 with DTS 152328, packet 44 with DTS 149325
    0: [mpeg @ 0x8e1300] Non-increasing DTS in stream 0: packet 46 with DTS 161337, packet 47 with DTS 158334
    0: [mpeg @ 0x8e1300] Non-increasing DTS in stream 0: packet 49 with DTS 170346, packet 50 with DTS 167343
    0: [mpeg @ 0x8e1300] Non-increasing DTS in stream 0: packet 52 with DTS 179355, packet 53 with DTS 176352
    0: [mpeg @ 0x8e1300] Non-increasing DTS in stream 0: packet 55 with DTS 188364, packet 56 with DTS 185361
    0: [mpeg @ 0x8e1300] Non-increasing DTS in stream 0: packet 58 with DTS 197373, packet 59 with DTS 194370
    0: [mpeg @ 0x8e1300] Non-increasing DTS in stream 0: packet 61 with DTS 206382, packet 62 with DTS 203379
    0: [mpeg @ 0x8e1300] Non-increasing DTS in stream 0: packet 64 with DTS 215391, packet 65 with DTS 212388
    0: [mpeg @ 0x8e1300] Non-increasing DTS in stream 0: packet 67 with DTS 224400, packet 68 with DTS 221397
    0: [mpeg @ 0x8e1300] Non-increasing DTS in stream 0: packet 70 with DTS 233409, packet 71 with DTS 230406
    0: [mpeg @ 0x8e1300] Non-increasing DTS in stream 0: packet 73 with DTS 242418, packet 74 with DTS 239415
    0: [mpeg @ 0x8e1300] Non-increasing DTS in stream 0: packet 76 with DTS 251427, packet 77 with DTS 248424
    0: [mpeg @ 0x8e1300] Non-increasing DTS in stream 0: packet 79 with DTS 260436, packet 80 with DTS 257433
    0: [mpeg @ 0x8e1300] Non-increasing DTS in stream 0: packet 82 with DTS 269445, packet 83 with DTS 266442
    0: [mpeg @ 0x8e1300] Non-increasing DTS in stream 0: packet 85 with DTS 278454, packet 86 with DTS 275451
    0: [mpeg @ 0x8e1300] Non-increasing DTS in stream 0: packet 88 with DTS 287463, packet 89 with DTS 284460
    0: [mpeg @ 0x8e1300] Non-increasing DTS in stream 0: packet 91 with DTS 296472, packet 92 with DTS 293469
    0: [mpeg @ 0x8e1300] Non-increasing DTS in stream 0: packet 94 with DTS 305481, packet 95 with DTS 302478
    0: [mpeg @ 0x8e1300] Non-increasing DTS in stream 0: packet 97 with DTS 314490, packet 98 with DTS 311487
    0: [mpeg @ 0x8e1300] Non-increasing DTS in stream 0: packet 100 with DTS 323499, packet 101 with DTS 320496
    0: [mpeg @ 0x8e1300] Non-increasing DTS in stream 0: packet 103 with DTS 332508, packet 104 with DTS 329505
    0: [mpeg @ 0x8e1300] Non-increasing DTS in stream 0: packet 106 with DTS 341517, packet 107 with DTS 338514
    0: [mpeg @ 0x8e1300] Non-increasing DTS in stream 0: packet 109 with DTS 350526, packet 110 with DTS 347523
    0: [mpeg @ 0x8e1300] Non-increasing DTS in stream 0: packet 112 with DTS 359535, packet 113 with DTS 356532
    0: [mpeg @ 0x8e1300] Non-increasing DTS in stream 0: packet 115 with DTS 368544, packet 116 with DTS 365541
    0: [mpeg @ 0x8e1300] Non-increasing DTS in stream 0: packet 118 with DTS 377553, packet 119 with DTS 374550
    1: avconv version 9.18-6:9.18-0ubuntu0.14.04.1, Copyright (c) 2000-2014 the Libav developers
    1: built on Mar 16 2015 13:19:10 with gcc 4.8 (Ubuntu 4.8.2-19ubuntu1)
    0: [mpeg @ 0x8e1300] Non-increasing DTS in stream 0: packet 121 with DTS 386562, packet 122 with DTS 383559
    0: [mpeg @ 0x8e1300] Non-increasing DTS in stream 0: packet 124 with DTS 395571, packet 125 with DTS 392568
    0: [mpeg @ 0x8e1300] Non-increasing DTS in stream 0: packet 127 with DTS 404580, packet 128 with DTS 401577
    0: Guessed Channel Layout for Input Stream #0.1 : stereo
    0: Input #0, mpeg, from '/home/sam/Desktop/Lecture_1.mpg':
    0: Duration: 00:32:55.83, start: 0.224400, bitrate: 9692 kb/s
    0: Stream #0.0[0x1e0]: Video: mpeg2video (Main), yuv420p, 720x480 [PAR 8:9 DAR 4:3], 8300 kb/s, 14.99 fps, 29.97 tbr, 90k tbn, 59.94 tbc
    0: Stream #0.1[0xa0]: Audio: pcm_s16be, 48000 Hz, stereo, s16, 1536 kb/s
    0: Stream #0.2[0x1d8]: Audio: mp2, 0 channels
    0: Stream #0.3[0x1d1]: Audio: mp2, 0 channels
    0: Stream #0.4[0x1e7]: Video: [0][0][0][0] / 0x0000, 90k tbn
    1: [mpeg @ 0x10ab320] Non-increasing DTS in stream 0: packet 13 with DTS 62238, packet 14 with DTS 59235
    1: [mpeg @ 0x10ab320] Non-increasing DTS in stream 0: packet 16 with DTS 71247, packet 17 with DTS 68244
    1: [mpeg @ 0x10ab320] Non-increasing DTS in stream 0: packet 19 with DTS 80256, packet 20 with DTS 77253
    0: [abuffer source @ 0x8e30c0] Value inf for parameter 'time_base' out of range
    0: [abuffer @ 0x8db840] Error parsing options string: time_base=1/0ample_rate=0ample_fmt=(null):channel_layout=0x0.
    0: Error opening filters!
    1: [mpeg @ 0x10ab320] Non-increasing DTS in stream 0: packet 22 with DTS 89265, packet 23 with DTS 86262
    1: [mpeg @ 0x10ab320] Non-increasing DTS in stream 0: packet 25 with DTS 98274, packet 26 with DTS 95271
    1: [mpeg @ 0x10ab320] Non-increasing DTS in stream 0: packet 28 with DTS 107283, packet 29 with DTS 104280
    1: [mpeg @ 0x10ab320] Non-increasing DTS in stream 0: packet 31 with DTS 116292, packet 32 with DTS 113289
    1: [mpeg @ 0x10ab320] Non-increasing DTS in stream 0: packet 34 with DTS 125301, packet 35 with DTS 122298
    1: [mpeg @ 0x10ab320] Non-increasing DTS in stream 0: packet 37 with DTS 134310, packet 38 with DTS 131307
    1: [mpeg @ 0x10ab320] Non-increasing DTS in stream 0: packet 55 with DTS 188364, packet 56 with DTS 185361
    1: [mpeg @ 0x10ab320] Non-increasing DTS in stream 0: packet 58 with DTS 197373, packet 59 with DTS 194370
    1: [mpeg @ 0x10ab320] Non-increasing DTS in stream 0: packet 61 with DTS 206382, packet 62 with DTS 203379
    1: [mpeg @ 0x10ab320] Non-increasing DTS in stream 0: packet 64 with DTS 215391, packet 65 with DTS 212388
    1: [mpeg @ 0x10ab320] Non-increasing DTS in stream 0: packet 67 with DTS 224400, packet 68 with DTS 221397
    1: [mpeg @ 0x10ab320] Non-increasing DTS in stream 0: packet 70 with DTS 233409, packet 71 with DTS 230406
    1: [mpeg @ 0x10ab320] Non-increasing DTS in stream 0: packet 73 with DTS 242418, packet 74 with DTS 239415
    1: [mpeg @ 0x10ab320] Non-increasing DTS in stream 0: packet 76 with DTS 251427, packet 77 with DTS 248424
    1: [mpeg @ 0x10ab320] Non-increasing DTS in stream 0: packet 79 with DTS 260436, packet 80 with DTS 257433
    1: [mpeg @ 0x10ab320] Non-increasing DTS in stream 0: packet 82 with DTS 269445, packet 83 with DTS 266442
    1: [mpeg @ 0x10ab320] Non-increasing DTS in stream 0: packet 85 with DTS 278454, packet 86 with DTS 275451
    1: [mpeg @ 0x10ab320] Non-increasing DTS in stream 0: packet 88 with DTS 287463, packet 89 with DTS 284460
    1: [mpeg @ 0x10ab320] Non-increasing DTS in stream 0: packet 91 with DTS 296472, packet 92 with DTS 293469
    1: [mpeg @ 0x10ab320] Non-increasing DTS in stream 0: packet 94 with DTS 305481, packet 95 with DTS 302478
    1: [mpeg @ 0x10ab320] Non-increasing DTS in stream 0: packet 97 with DTS 314490, packet 98 with DTS 311487
    1: [mpeg @ 0x10ab320] Non-increasing DTS in stream 0: packet 100 with DTS 323499, packet 101 with DTS 320496
    1: [mpeg @ 0x10ab320] Non-increasing DTS in stream 0: packet 103 with DTS 332508, packet 104 with DTS 329505
    1: [mpeg @ 0x10ab320] Non-increasing DTS in stream 0: packet 106 with DTS 341517, packet 107 with DTS 338514
    1: [mpeg @ 0x10ab320] Non-increasing DTS in stream 0: packet 109 with DTS 350526, packet 110 with DTS 347523
    1: [mpeg @ 0x10ab320] Non-increasing DTS in stream 0: packet 112 with DTS 359535, packet 113 with DTS 356532
    1: [mpeg @ 0x10ab320] Non-increasing DTS in stream 0: packet 115 with DTS 368544, packet 116 with DTS 365541
    1: [mpeg @ 0x10ab320] Non-increasing DTS in stream 0: packet 118 with DTS 377553, packet 119 with DTS 374550
    1: [mpeg @ 0x10ab320] Non-increasing DTS in stream 0: packet 121 with DTS 386562, packet 122 with DTS 383559
    1: [mpeg @ 0x10ab320] Non-increasing DTS in stream 0: packet 124 with DTS 395571, packet 125 with DTS 392568
    1: [mpeg @ 0x10ab320] Non-increasing DTS in stream 0: packet 127 with DTS 404580, packet 128 with DTS 401577
    1: [mpeg @ 0x10ab320] Non-increasing DTS in stream 0: packet 130 with DTS 413589, packet 131 with DTS 410586
    1: [mpeg @ 0x10ab320] Non-increasing DTS in stream 0: packet 133 with DTS 422598, packet 134 with DTS 419595
    1: [mpeg @ 0x10ab320] Non-increasing DTS in stream 0: packet 136 with DTS 431607, packet 137 with DTS 428604
    1: [mpeg @ 0x10ab320] Non-increasing DTS in stream 0: packet 139 with DTS 440616, packet 140 with DTS 437613
    1: [mpeg @ 0x10ab320] Non-increasing DTS in stream 0: packet 142 with DTS 449625, packet 143 with DTS 446622
    1: [mpeg @ 0x10ab320] Non-increasing DTS in stream 0: packet 145 with DTS 458634, packet 146 with DTS 455631
    1: Guessed Channel Layout for Input Stream #0.1 : stereo
    1: Input #0, mpeg, from '/home/sam/Desktop/Lecture_2.mpg':
    1: Duration: 00:30:16.00, start: 0.224400, bitrate: 9678 kb/s
    1: Stream #0.0[0x1e0]: Video: mpeg2video (Main), yuv420p, 720x480 [PAR 8:9 DAR 4:3], 8300 kb/s, 29.97 tbr, 90k tbn, 59.94 tbc
    1: Stream #0.1[0xa0]: Audio: pcm_s16be, 48000 Hz, stereo, s16, 1536 kb/s
    1: Output #0, dvd, to '/dev/null':
    1: Metadata:
    1: encoder : Lavf54.20.4
    1: Stream #0.0: Video: mpeg2video, yuv420p, 720x480 [PAR 8:9 DAR 4:3], q=2-31, 8300 kb/s, 90k tbn, 90k tbc
    1: Stream #0.1: Audio: ac3, 48000 Hz, stereo, fltp, 448 kb/s
    1: Stream mapping:
    1: Stream #0:0 -> #0:0 (copy)
    1: Stream #0:1 -> #0:1 (pcm_s16be -> ac3)
    1: Press ctrl-c to stop encoding
    1: frame= 1 fps= 0 q=-1.0 Lsize= 32kB time=0.03 bitrate=9733.1kbits/s
    1: video:28kB audio:2kB global headers:0kB muxing overhead 8.907206%
    1: Received signal 15: terminating.
    ERR: avconv failure: exit code = 1
    Stop authoring!
    -------------------------------------------------------------------------------------
    I hope that's helpful................ thanks to all who try to help here
    Quote Quote  
  7. It appears DVDStyler stop when creating menus.

    You could try "Settings -> Core -> Untick Use mplex for menus".

    Click image for larger version

Name:	Mplex.jpg
Views:	97
Size:	45.2 KB
ID:	39341
    Quote Quote  
  8. Member
    Join Date
    Oct 2016
    Location
    Minnesota
    Search Comp PM
    same behaviour as before

    took some screenshots but don't know how to paste them in here, will try to upload them as .png file
    Image Attached Thumbnails Click image for larger version

Name:	Screenshot-Settings.png
Views:	155
Size:	70.8 KB
ID:	39354  

    Click image for larger version

Name:	Screenshot-DVDStyler - -home-sam-Desktop-dvd.dvds.png
Views:	139
Size:	266.0 KB
ID:	39355  

    Quote Quote  



Similar Threads