VideoHelp Forum

Our website is made possible by displaying online advertisements to our visitors. Consider supporting us by disable your adblocker or Try ConvertXtoDVD and convert all your movies to DVD. Free trial ! :)
+ Reply to Thread
Results 1 to 9 of 9
Thread
  1. Hi all, I would greatly appreciate any assistance provided to me.

    I am attempting to create blu rays from self-made recordings using the Hauppauge HD PVR 2 and the software Hauppauge Capture or Arcsoft Showbiz.
    However, when I use TsMuxer and burn to either "blu-ray folder" or "avchd folder" the discs are not compatible with my blu ray players or my PS3. At

    I've used the original h264 ts files, I've used an mkv version of the file. and each time the discs load and stay on a black screen.

    At this point, I don't care about the best quality, I just want to be able to burn to blu rays that are compatible with my players. Is there something about the settings of my recordings that is causing this?

    Thank you.

    P.S. I have no issue with burning blu rays using other people's recordings that I download online.
    Quote Quote  
  2. I'm a Super Moderator johns0's Avatar
    Join Date
    Jun 2002
    Location
    canada
    Search Comp PM
    Post a mediainfo file in text mode to see the specs of the video files,they might need to be re-encoded if there are not in blu-ray specs.
    I think,therefore i am a hamster.
    Quote Quote  
  3. General
    ID : 0 (0x0)
    Complete name : J:\2016 NBA\4-13-16 ESPN Jazz @ Lakers Kobe Final Game 720p.TS
    Format : MPEG-TS
    File size : 9.69 GiB
    Duration : 4h 10mn
    Overall bit rate mode : Variable
    Overall bit rate : 5 546 Kbps

    Video
    ID : 4113 (0x1011)
    Menu ID : 1 (0x1)
    Format : AVC
    Format/Info : Advanced Video Codec
    Format profile : High@L4.1
    Format settings, CABAC : Yes
    Format settings, ReFrames : 3 frames
    Codec ID : 27
    Duration : 4h 10mn
    Width : 1 280 pixels
    Height : 720 pixels
    Display aspect ratio : 16:9
    Frame rate : 59.940 (60000/1001) fps
    Standard : Component
    Color space : YUV
    Chroma subsampling : 4:2:0
    Bit depth : 8 bits
    Scan type : Progressive
    Color range : Limited
    Color primaries : BT.709
    Transfer characteristics : BT.709
    Matrix coefficients : BT.709

    Audio
    ID : 4352 (0x1100)
    Menu ID : 1 (0x1)
    Format : AAC
    Format/Info : Advanced Audio Codec
    Format version : Version 2
    Format profile : LC
    Muxing mode : ADTS
    Codec ID : 15
    Duration : 4h 10mn
    Bit rate mode : Variable
    Channel(s) : 2 channels
    Channel positions : Front: L R
    Sampling rate : 48.0 KHz
    Frame rate : 46.875 fps (1024 spf)
    Compression mode : Lossy
    Delay relative to video : 13ms
    Quote Quote  
  4. Member
    Join Date
    Feb 2014
    Location
    QUÉBEC
    Search Comp PM
    try this in tsmuxer:

    Click image for larger version

Name:	Capture.JPG
Views:	133
Size:	72.6 KB
ID:	37069

    and you might need to convert the audio to AC3
    Quote Quote  
  5. AAC audio is not supported on BluRay. But I don't know if that's the (only) reason it's failing.
    Quote Quote  
  6. I tried a different file of mine with MPEG audio and that did not work either. Here is the log for that.

    eneral
    ID : 1 (0x1)
    Complete name : C:\Users\me\Desktop\5 17 2016 Cleveland Cavaliers vs Toronto Raptors East Finals Game 1 with nba draft lottery preceding coverage.ts
    Format : MPEG-TS
    File size : 20.1 GiB
    Duration : 4h 32mn
    Overall bit rate mode : Variable
    Overall bit rate : 10.6 Mbps

    Video
    ID : 4113 (0x1011)
    Menu ID : 1 (0x1)
    Format : AVC
    Format/Info : Advanced Video Codec
    Format profile : High@L4
    Format settings, CABAC : Yes
    Format settings, ReFrames : 3 frames
    Codec ID : 27
    Duration : 4h 32mn
    Bit rate : 9 837 Kbps
    Width : 1 280 pixels
    Height : 720 pixels
    Display aspect ratio : 16:9
    Frame rate : 59.940 (60000/1001) fps
    Standard : Component
    Color space : YUV
    Chroma subsampling : 4:2:0
    Bit depth : 8 bits
    Scan type : Progressive
    Bits/(Pixel*Frame) : 0.178
    Stream size : 18.7 GiB (93%)
    Color range : Limited
    Color primaries : BT.709
    Transfer characteristics : BT.709
    Matrix coefficients : BT.709

    Audio
    ID : 4352 (0x1100)
    Menu ID : 1 (0x1)
    Format : MPEG Audio
    Format version : Version 1
    Format profile : Layer 2
    Codec ID : 3
    Duration : 4h 32mn
    Bit rate mode : Constant
    Bit rate : 192 Kbps
    Channel(s) : 2 channels
    Sampling rate : 48.0 KHz
    Compression mode : Lossy
    Stream size : 375 MiB (2%)
    Language : English


    __________________


    May I convert from AAC to AC3 audio using Handbrake? And if I burn in TsMuxer using "blu ray iso" will that be playable on Blu Ray players or PS3?
    Quote Quote  
  7. aBigMeanie aedipuss's Avatar
    Join Date
    Oct 2005
    Location
    666th portal
    Search Comp PM
    look at the blu-ray specs. mpg audio isn't allowed either. click on "what is/blu ray" tab at the top of this site.
    --
    "a lot of people are better dead" - prisoner KSC2-303
    Quote Quote  
  8. Member
    Join Date
    Feb 2006
    Location
    United States
    Search Comp PM
    Put your movies on a flash drive and
    Play them on the ps3 - http://manuals.playstation.net/document/en/ps3/current/video/filetypes.html
    Quote Quote  
  9. I thank all of you for your help. With your assistance, I got the blu rays to work. They work on my blu ray players, both audio and video. Unfortunately, the sound, in AC3, is messed up on PS3 playback. I don't know how to explain it, but there is sound on the PS3, but it just bounces up and down. Would anyone know the fix to that?
    Last edited by mtepper27; 24th May 2016 at 16:54.
    Quote Quote  



Similar Threads